<?xml version="1.0" standalone="no"?>
<!DOCTYPE svg PUBLIC "-//W3C//DTD SVG 1.1//EN" "http://www.w3.org/Graphics/SVG/1.1/DTD/svg11.dtd" >
<svg xmlns="http://www.w3.org/2000/svg" xmlns:xlink="http://www.w3.org/1999/xlink" version="1.1">
<metadata></metadata>
<defs>
<font id="latoblack_italic" horiz-adv-x="1187" >
<font-face units-per-em="2048" ascent="1649" descent="-399" />
<missing-glyph horiz-adv-x="419" />
<glyph unicode="&#xfb01;" horiz-adv-x="1204" d="M62 -254l136 1099l-58 13q-34 8 -52.5 24t-14.5 49l14 129h137l2 15q11 96 53 180.5t114.5 147.5t178.5 99t246 36q43 0 89 -4.5t79 -13.5l-31 -155q-5 -27 -27.5 -34t-45.5 -7q-100 0 -166 -16t-107 -47t-61 -79t-27 -113l-1 -9h628l-129 -1060h-311l104 843h-306 l-95 -794l-56 -178q-20 -58 -57 -91.5t-107 -33.5h-129z" />
<glyph unicode="&#xfb02;" horiz-adv-x="1213" d="M62 -254l135 1099l-57 13q-34 8 -53 24t-14 49l15 129h135l5 39q10 81 44 157.5t92.5 135.5t142.5 95t194 36q87 0 163 -6t156 -7h202l-187 -1510h-307l158 1292q-42 5 -83 10t-79 5q-85 0 -136 -51.5t-61 -156.5l-4 -39h203l-27 -217h-191l-97 -794l-56 -178 q-20 -58 -57 -91.5t-107 -33.5h-129z" />
<glyph unicode="&#xfb03;" horiz-adv-x="1829" d="M65 -252l134 1104l-60 14q-33 6 -52 23t-14 51l15 120h136l5 40q11 91 49 165t97.5 126.5t137 80.5t167.5 28q36 0 66 -4.5t61 -13.5l-29 -161q-5 -26 -28.5 -34t-47.5 -8q-38 0 -67 -6.5t-50.5 -25.5t-35 -52t-20.5 -85l-6 -50h330l2 15q11 96 52.5 180.5t114.5 147.5 t179 99t246 36q43 0 89 -4.5t79 -13.5l-31 -155q-5 -27 -27.5 -34t-46.5 -7q-100 0 -165.5 -16t-106.5 -47t-61 -79t-27 -113l-1 -9h625l-130 -1060h-307l105 850h-306l-97 -801l-55 -178q-20 -58 -57 -91.5t-107 -33.5h-129l136 1104h-318l-96 -799l-56 -178 q-20 -58 -57 -91.5t-106 -33.5h-129z" />
<glyph unicode="&#xfb04;" horiz-adv-x="1837" d="M59 -252l135 1102l-55 13q-33 6 -52 23.5t-14 50.5l15 120h131l5 43q11 91 49 165t97.5 126.5t137 80.5t167.5 28q36 0 66 -4.5t61 -13.5l-29 -161q-5 -26 -28.5 -34t-47.5 -8q-38 0 -67 -6.5t-50.5 -25.5t-35.5 -52t-20 -85l-7 -53h330l5 42q10 81 44 157.5t92.5 135.5 t142 95t194.5 36q87 0 163 -6t156 -7h201l-186 -1510h-307l157 1292q-42 5 -83 10t-78 5q-85 0 -136.5 -51.5t-60.5 -156.5l-4 -42h226l-27 -210h-213l-99 -798l-55 -178q-20 -58 -57 -91.5t-107 -33.5h-129l135 1101h-317l-96 -796l-56 -178q-20 -58 -57 -91.5t-107 -33.5 h-129z" />
<glyph horiz-adv-x="0" />
<glyph horiz-adv-x="0" />
<glyph horiz-adv-x="682" />
<glyph unicode=" "  horiz-adv-x="419" />
<glyph unicode="&#x09;" horiz-adv-x="419" />
<glyph unicode="&#xa0;" horiz-adv-x="419" />
<glyph unicode="!" horiz-adv-x="566" d="M53 161q0 37 14 68.5t38 55t57 37.5t71 14t71 -14t57.5 -37.5t38.5 -55t14 -68.5t-14 -69.5t-38.5 -56t-57.5 -36.5t-71 -13q-39 0 -71.5 13t-56.5 36.5t-38 56t-14 69.5zM155 718q1 93 13 186l72 588h284l-71 -588q-11 -93 -34 -185.5t-52 -190.5h-207q-6 97 -5 190z " />
<glyph unicode="&#x22;" horiz-adv-x="805" d="M148 1197l37 293h267l-37 -293l-47 -162q-15 -53 -42 -81t-79 -28q-45 0 -65 28t-25 81zM525 1197l37 293h267l-37 -293l-47 -162q-15 -53 -42 -81t-79 -28q-45 0 -65 28t-25 81z" />
<glyph unicode="#" d="M10 434.5q-17 27.5 1 91.5l29 95h183l75 250h-207l39 124q15 46 48 67t100 21h76l91 309q15 46 54.5 72t87.5 26h141l-124 -407h176l124 407h137q23 0 41.5 -7.5t29.5 -21t14.5 -32t-3.5 -39.5l-91 -307h202l-41 -122q-14 -46 -47.5 -68t-97.5 -22h-72l-75 -250h118 q46 0 63 -27t-2 -93l-28 -94h-206l-122 -407h-143q-20 0 -37.5 9.5t-27 26.5t-11.5 39t6 47l85 285h-177l-88 -301q-8 -29 -24 -49t-36 -33t-43 -18.5t-47 -5.5h-137l124 407h-95q-46 0 -63 27.5zM474 621h177l75 250h-176z" />
<glyph unicode="$" d="M-10 180l112 136q14 17 35.5 28.5t44.5 11.5q25 0 48.5 -13t51.5 -32t63 -38.5t81 -31.5l88 401q-66 19 -130.5 44.5t-115.5 66.5t-82.5 103t-31.5 154t37.5 178.5t109 154.5t172.5 111t228 49l26 116q5 29 30.5 51t59.5 22h113l-44 -200q109 -20 182 -65.5t122 -98.5 l-88 -109q-20 -26 -39 -37t-43 -11q-15 0 -34.5 8t-43 19.5t-51 24t-58.5 21.5l-83 -377q66 -20 131 -45.5t117 -65t84 -97t32 -141.5q0 -102 -38.5 -194.5t-110 -164.5t-175 -118t-233.5 -55l-29 -133q-2 -13 -10 -26t-20.5 -23t-27.5 -16t-32 -6h-112l46 212 q-57 9 -112 26.5t-104.5 41.5t-91.5 53.5t-74 64.5zM449 1076q0 -54 35 -89t91 -59l72 323q-55 -7 -93 -23.5t-61.5 -39.5t-33.5 -51.5t-10 -60.5zM611 234q102 15 153 69t51 143q0 54 -35.5 86.5t-90.5 55.5z" />
<glyph unicode="%" horiz-adv-x="1592" d="M41 0l1216 1445q17 16 40.5 30.5t62.5 14.5h223l-1218 -1447q-17 -17 -40.5 -30t-56.5 -13h-227zM125 1078q0 95 29.5 173.5t81 135t121 87t149.5 30.5q66 0 119.5 -23t92 -65.5t59 -101.5t20.5 -131q0 -95 -33.5 -173t-87 -133.5t-122.5 -85.5t-140 -30q-66 0 -119 23 t-91 65t-58.5 100.5t-20.5 128.5zM360 1078q0 -71 21 -98.5t57 -27.5q27 0 49.5 11.5t39 38t25.5 70.5t9 109q0 74 -22 104t-58 30q-28 0 -50 -13t-37.5 -41t-24.5 -73t-9 -110zM823 298q0 96 30 175t81 135.5t120.5 87t149.5 30.5q66 0 119.5 -23.5t92 -65.5t59 -102 t20.5 -132q0 -95 -33.5 -172.5t-87 -133t-122 -85.5t-140.5 -30q-66 0 -119 23t-91 65t-58.5 100t-20.5 128zM1059 298q0 -70 21 -98t57 -28q27 0 49 11.5t38.5 38.5t26 70.5t9.5 108.5q0 75 -22.5 104t-57.5 29q-28 0 -50.5 -12.5t-38 -40.5t-24 -73.5t-8.5 -109.5z" />
<glyph unicode="&#x26;" horiz-adv-x="1389" d="M31 370q0 78 24 146t66.5 125.5t100.5 105t126 80.5q-29 61 -41 122.5t-12 116.5q0 89 31.5 169t91 140.5t144.5 95.5t192 35q93 0 162 -28.5t115 -76t68 -109t21 -128.5l-184 -36q-39 -7 -58 2.5t-30 41.5q-35 109 -123 109q-35 0 -62 -16t-45.5 -42.5t-28 -62.5 t-9.5 -76q0 -41 13.5 -86t47.5 -97l279 -367q56 112 80 242q5 28 20 45.5t45 17.5h217q-19 -150 -71.5 -280.5t-130.5 -235.5l245 -323h-266q-37 0 -63 4.5t-46.5 15t-37.5 26t-35 39.5l-18 25q-91 -61 -192.5 -93.5t-209.5 -32.5q-103 0 -183 27t-134 77.5t-81.5 122 t-27.5 159.5zM346 409q0 -42 9.5 -77t30.5 -60t54.5 -39t81.5 -14q54 0 105 19t98 53l-267 365q-63 -53 -87.5 -116t-24.5 -131z" />
<glyph unicode="'" horiz-adv-x="429" d="M148 1197l37 293h267l-37 -293l-47 -162q-15 -53 -42 -81t-79 -28q-45 0 -65 28t-25 81z" />
<glyph unicode="(" horiz-adv-x="561" d="M53 416q0 160 21 311t68 298t122.5 294t184.5 301l126 -78q11 -8 21 -18t13 -23.5t-1 -32t-20 -43.5q-60 -110 -109.5 -225t-85 -237.5t-55 -254t-19.5 -271.5q0 -68 5.5 -144t15 -152t24 -149.5t33.5 -134.5q9 -25 9 -43t-7 -31.5t-19 -23.5t-26 -18l-145 -79 q-41 86 -70 181t-48 192t-28.5 194.5t-9.5 186.5z" />
<glyph unicode=")" horiz-adv-x="560" d="M-47 -217.5q-3 13.5 1 31.5t20 43q59 109 109 225t85.5 238.5t55 254t19.5 270.5q0 68 -5.5 144t-15.5 152.5t-24.5 149.5t-32.5 134q-9 25 -8.5 43.5t7 32t18.5 23.5t26 18l145 78q41 -86 70.5 -180t48 -192t28 -195t9.5 -187q0 -160 -21 -310t-68.5 -297.5t-123.5 -295 t-184 -301.5l-125 79q-11 8 -21 18t-13 23.5z" />
<glyph unicode="*" horiz-adv-x="813" d="M132 1078l146 89q42 25 80 32q-18 4 -36.5 12t-35.5 19l-125 91l86 119l125 -92q16 -10 30 -21t25 -25q-4 17 -4 36.5t2 39.5l22 181h144l-23 -180q-5 -42 -21 -79q14 14 31.5 25.5t36.5 22.5l146 90l55 -119l-145 -89q-20 -11 -41 -19t-41 -12q39 -6 74 -32l122 -91 l-84 -115l-124 89q-16 11 -30.5 21.5t-25.5 24.5q4 -17 4 -36.5t-2 -39.5l-22 -181h-144l23 179q4 42 20 79q-14 -13 -31 -24.5t-36 -22.5l-146 -89z" />
<glyph unicode="+" d="M81 579l29 219h378l52 407h247l-50 -407h384l-28 -219h-382l-51 -410h-249l51 410h-381z" />
<glyph unicode="," horiz-adv-x="500" d="M19 180q0 33 12.5 61t35.5 49t54.5 33.5t69.5 12.5q46 0 80 -16t56.5 -43t33.5 -62.5t11 -74.5q0 -51 -16.5 -109t-49 -116t-80.5 -114.5t-110 -102.5l-56 49q-23 18 -22 43q0 16 18 36.5t41 47t45.5 59t32.5 73.5q-35 3 -63.5 17.5t-49 37.5t-32 53t-11.5 66z" />
<glyph unicode="-" horiz-adv-x="703" d="M78 498l31 247h514l-33 -247h-512z" />
<glyph unicode="&#xad;" horiz-adv-x="703" d="M78 498l31 247h514l-33 -247h-512z" />
<glyph unicode="." horiz-adv-x="494" d="M13 161q0 37 14 68.5t38 55t57 37.5t72 14q38 0 70.5 -14t57 -37.5t38.5 -55t14 -68.5t-14 -69.5t-38.5 -56t-57.5 -36.5t-70 -13q-39 0 -72 13t-57 36.5t-38 56t-14 69.5z" />
<glyph unicode="/" horiz-adv-x="901" d="M-40 -103l698 1493q27 49 70.5 76.5t97.5 27.5h129l-692 -1487q-14 -27 -34 -47.5t-43 -34.5t-47.5 -21t-47.5 -7h-131z" />
<glyph unicode="0" d="M84 582q0 233 48 407t131 289.5t195 172t241 56.5q95 0 174.5 -37t136.5 -112t88.5 -187t31.5 -263q0 -234 -48.5 -407.5t-132.5 -288.5t-196.5 -171.5t-240.5 -56.5q-95 0 -174 37t-135.5 112t-87.5 187t-31 262zM397 563q0 -97 12.5 -161.5t32.5 -103t46 -54t55 -15.5 q33 0 65.5 14t63 46t57.5 84t46.5 129.5t30.5 182t11 240.5q0 98 -12.5 163t-33 103.5t-48 54.5t-55.5 16q-49 0 -98 -33t-87.5 -113t-62 -214.5t-23.5 -338.5z" />
<glyph unicode="1" d="M178 0l29 221h259l94 776q3 27 7.5 54t10.5 55l-164 -142q-24 -16 -46 -20.5t-40 -1t-31 13t-19 19.5l-80 128l478 389h253l-156 -1271h222l-28 -221h-789z" />
<glyph unicode="2" d="M24 0l12 98q4 29 20 62t48 60l445 436q67 66 114 121.5t76.5 108t43.5 105.5t14 114q0 72 -31 112t-98 40q-61 0 -107.5 -39.5t-70.5 -98.5q-28 -54 -63.5 -72.5t-95.5 -7.5l-159 28q30 111 83 193t124.5 137.5t157.5 82.5t181 27q94 0 167 -28t124 -77.5t77.5 -119 t26.5 -150.5q0 -93 -26.5 -170.5t-72 -147t-106.5 -133.5t-130 -131l-319 -316q61 18 121 29.5t109 11.5h235q49 0 74 -26.5t20 -71.5l-23 -177h-971z" />
<glyph unicode="3" d="M58 381l144 55q28 10 53.5 13.5t46.5 -1.5t36 -16.5t22 -30.5q34 -82 76 -125.5t96 -43.5q50 0 90.5 21.5t68 58t41.5 85t14 103.5q0 35 -9.5 63.5t-37.5 49.5t-78.5 32t-131.5 11l27 212q86 0 142.5 15.5t88.5 45.5t45 74.5t13 102.5q0 72 -31.5 111.5t-98.5 39.5 q-61 0 -107.5 -39.5t-69.5 -98.5q-28 -54 -64 -72.5t-97 -7.5l-158 28q30 111 83 193t124.5 137.5t157.5 82.5t181 27t167 -27.5t120 -74.5t72.5 -109.5t24.5 -132.5q0 -82 -16 -144t-47 -107t-78 -75t-110 -50q194 -79 194 -286q0 -128 -47 -225t-123 -162t-174.5 -97.5 t-202.5 -32.5q-96 0 -170 23.5t-128.5 72.5t-90.5 124t-58 177z" />
<glyph unicode="4" d="M32 561l746 930h292l-113 -914h136l-22 -174q-3 -24 -21 -40t-45 -16h-75l-43 -347h-266l42 347h-547q-28 0 -49 17.5t-23 45.5zM346 577h344l49 408q4 30 9.5 61.5t13.5 67.5z" />
<glyph unicode="5" d="M45 171l111 127q35 39 82 39q29 0 51.5 -16.5t50 -36.5t64.5 -36.5t95 -16.5q68 0 114 27.5t74.5 71.5t40.5 100t12 115q0 91 -47.5 141t-135.5 50q-91 0 -181 -38l-183 52l209 741h710l-16 -126q-8 -63 -54.5 -102.5t-143.5 -39.5h-313l-73 -258q39 7 75 10t68 3 q98 0 172 -31t123.5 -84.5t74.5 -125.5t25 -154q0 -131 -46.5 -241.5t-127 -189.5t-191 -123.5t-236.5 -44.5q-68 0 -127.5 15t-110 41t-92 59.5t-74.5 71.5z" />
<glyph unicode="6" horiz-adv-x="1092" d="M85 439q0 71 14 136.5t41 129.5t67.5 127.5t93.5 130.5l362 457q26 30 71 50.5t101 20.5h272l-472 -530l-37 -41q32 11 66 16.5t73 5.5q68 0 131.5 -23.5t113.5 -71t80.5 -120t30.5 -168.5q0 -118 -43 -223t-119.5 -183t-181.5 -123.5t-228 -45.5q-104 0 -185.5 33.5 t-137.5 94t-84.5 144t-28.5 183.5zM376 427q0 -90 41.5 -145.5t129.5 -55.5q47 0 89.5 21.5t74.5 59.5t51.5 90.5t19.5 114.5q0 97 -48.5 153t-133.5 56q-46 0 -86.5 -20.5t-71 -59t-48.5 -92.5t-18 -122z" />
<glyph unicode="7" d="M121 0l612 1082q28 42 55.5 76.5t59.5 64.5h-592q-27 0 -45 20.5t-15 45.5l25 202h971l-16 -128q-8 -57 -25.5 -92.5t-32.5 -60.5l-602 -1110q-27 -42 -67.5 -71t-104.5 -29h-223z" />
<glyph unicode="8" d="M71 372q0 72 14.5 135t48.5 115.5t87.5 92.5t131.5 65q-78 42 -116 110t-38 162q0 98 39.5 181.5t107.5 144.5t159.5 95t195.5 34q90 0 164 -27.5t126.5 -76t82 -114.5t29.5 -143q0 -131 -58 -225.5t-176 -144.5q105 -43 151 -118.5t46 -178.5q0 -113 -41.5 -204.5 t-114.5 -156t-174.5 -99.5t-221.5 -35q-101 0 -183.5 27.5t-140 78.5t-88.5 122.5t-31 159.5zM388 393q0 -38 9 -70.5t27 -56.5t47.5 -38t71.5 -14q55 0 94.5 20.5t65 56.5t37.5 85t12 106q0 39 -8 71t-26.5 54.5t-48.5 34.5t-74 12q-108 0 -157.5 -65t-49.5 -196zM496 1049 q0 -31 6 -60.5t20.5 -52t39.5 -36t63 -13.5q47 0 80.5 18.5t55.5 50.5t32.5 76t10.5 95q0 31 -7 59t-22.5 49.5t-40.5 35t-61 13.5q-49 0 -83 -19.5t-55 -51.5t-30 -75t-9 -89z" />
<glyph unicode="9" d="M109 0l507 568q14 16 27.5 32t27.5 32q-91 -47 -198 -47q-60 0 -118.5 23t-105.5 69t-76 115t-29 161q0 113 41.5 214t115.5 176.5t175 119.5t220 44q101 0 180 -31.5t133 -88.5t81.5 -136t27.5 -172q0 -82 -14.5 -154t-42.5 -138.5t-67.5 -129t-88.5 -126.5l-348 -463 q-24 -28 -68.5 -48t-97.5 -20h-282zM455 990q0 -88 38.5 -135t118.5 -47q50 0 90 19.5t68 55t42.5 84.5t14.5 107q0 93 -45 142.5t-120 49.5q-47 0 -85 -20.5t-65.5 -57t-42 -87.5t-14.5 -111z" />
<glyph unicode=":" horiz-adv-x="548" d="M41 161q0 37 14 68.5t38 55t57 37.5t72 14q38 0 70.5 -14t57 -37.5t38.5 -55t14 -68.5t-14 -69.5t-38.5 -56t-57.5 -36.5t-70 -13q-39 0 -72 13t-57 36.5t-38 56t-14 69.5zM118 860q0 37 14 68.5t38 55t57 37.5t72 14q38 0 70.5 -14t57 -37.5t38.5 -55t14 -68.5 t-14 -69.5t-38.5 -56t-57.5 -36.5t-70 -13q-39 0 -72 13t-57 36.5t-38 56t-14 69.5z" />
<glyph unicode=";" horiz-adv-x="574" d="M58 180q0 33 12.5 61t35.5 49t54.5 33.5t69.5 12.5q46 0 80 -16t56.5 -43t33.5 -62.5t11 -74.5q0 -51 -16.5 -109t-49 -116t-80.5 -114.5t-110 -102.5l-56 49q-23 18 -22 43q0 16 18 36.5t41 47t45.5 59t32.5 73.5q-35 3 -63.5 17.5t-49 37.5t-32 53t-11.5 66zM130 860 q0 37 14 68.5t38 55t57 37.5t72 14q38 0 70.5 -14t57 -37.5t38.5 -55t14 -68.5t-14 -69.5t-38.5 -56t-57.5 -36.5t-70 -13q-39 0 -72 13t-57 36.5t-38 56t-14 69.5z" />
<glyph unicode="&#x3c;" d="M148 629l12 93l4 31l883 434l-28 -220q-3 -24 -17.5 -44t-44.5 -34l-309 -157q-55 -26 -124 -41q67 -15 114 -41l273 -157q26 -13 35 -33.5t6 -43.5l-28 -220z" />
<glyph unicode="=" d="M98 392l29 219h928l-29 -219h-928zM145 763l29 220h926l-27 -220h-928z" />
<glyph unicode="&#x3e;" d="M156 196l28 220q3 24 17.5 43.5t44.5 33.5l308 157q55 26 124 41q-32 8 -60.5 18t-53.5 23l-272 157q-27 14 -35.5 34t-5.5 44l28 220l776 -434l-12 -93l-4 -31z" />
<glyph unicode="?" horiz-adv-x="904" d="M145 1354q40 32 84.5 59.5t95 48.5t106.5 32.5t120 11.5q87 0 152.5 -24.5t109 -66t65 -96t21.5 -116.5q0 -87 -22 -147t-56 -103t-75 -74t-80.5 -61t-71.5 -63.5t-47 -80.5l-45 -146h-211v165q0 53 24 94.5t60.5 76.5t78.5 66t78 63t60 69.5t24 84.5q0 55 -27.5 88 t-94.5 33q-48 0 -82.5 -12t-60 -25.5t-45 -25.5t-38.5 -12q-24 0 -35 8.5t-22 28.5zM193 161q0 37 13.5 68.5t37.5 55t57 37.5t72 14q38 0 70.5 -14t57 -37.5t38.5 -55t14 -68.5t-14 -69.5t-38.5 -56t-57 -36.5t-70.5 -13q-39 0 -72 13t-57 36.5t-37.5 56t-13.5 69.5z" />
<glyph unicode="@" horiz-adv-x="1587" d="M68 484q0 127 30.5 246.5t86.5 224.5t134.5 192.5t174 150t205.5 97.5t229 35q127 0 238 -45t194 -126.5t130.5 -197t47.5 -257.5q0 -128 -37 -240.5t-101.5 -196t-151.5 -132.5t-187 -49q-29 0 -56.5 7t-50.5 22t-40.5 39t-26.5 57q-65 -68 -130.5 -96t-135.5 -28 q-54 0 -95 19.5t-67.5 53.5t-39.5 80t-13 100q0 62 16 128.5t48.5 128t80.5 116t112.5 95.5t145 64.5t176.5 23.5q43 0 77 -3t63 -9t54 -14.5t52 -21.5l-141 -387q-17 -57 -22.5 -94t0.5 -58.5t21.5 -30t38.5 -8.5q40 0 75.5 34t62 93t42 138t15.5 169q0 105 -28 186.5 t-82 137.5t-132.5 84.5t-177.5 28.5q-134 0 -246.5 -57.5t-194 -158t-127.5 -237t-46 -293.5q0 -135 35.5 -238t102 -173t159.5 -105.5t209 -35.5q75 0 136.5 8t110.5 20.5t84 27t56 28.5q29 14 49 16t34.5 -4t23 -19t14.5 -27l22 -83q-51 -34 -111 -62.5t-129 -50 t-147.5 -33.5t-165.5 -12q-162 0 -292 52.5t-221.5 148t-141 230.5t-49.5 301zM643 472q0 -94 64 -94q19 0 39 7t39 24.5t36 46.5t31 73l102 281q-22 3 -43 3q-49 0 -97 -28t-86 -75t-61.5 -109t-23.5 -129z" />
<glyph unicode="A" horiz-adv-x="1366" d="M-95 0l712 1492h342l347 -1492h-258q-43 0 -67.5 20t-33.5 53l-46 268h-507l-110 -268q-14 -28 -45.5 -50.5t-71.5 -22.5h-262zM487 568h375l-72 426q-8 40 -18 95t-19 118q-25 -65 -49 -119.5t-41 -95.5z" />
<glyph unicode="B" horiz-adv-x="1280" d="M58 0l185 1492h512q130 0 222.5 -24.5t151.5 -70t86 -109.5t27 -142q0 -61 -16 -118t-50 -105.5t-88 -87t-131 -66.5q121 -33 178.5 -102t57.5 -174q0 -103 -39.5 -193t-114 -156.5t-181.5 -105t-243 -38.5h-557zM423 251h219q61 0 103 18t68.5 50t38 75t11.5 94 q0 34 -8.5 62t-29.5 46.5t-55.5 29.5t-84.5 11h-215zM497 858h159q56 0 101.5 11.5t77.5 38.5t49.5 72t17.5 112q0 83 -43.5 117t-134.5 34h-180z" />
<glyph unicode="C" horiz-adv-x="1263" d="M67 634q0 128 28.5 242.5t80.5 212t125.5 175t162.5 132t191.5 83.5t213.5 29q84 0 153.5 -15.5t125 -44t99.5 -67.5t77 -86l-117 -135q-12 -14 -28.5 -25.5t-42.5 -11.5q-17 0 -31.5 8.5t-29.5 20t-33.5 26t-44 26t-61 20t-83.5 8.5q-94 0 -175.5 -40t-141.5 -114 t-93.5 -180t-33.5 -238q0 -95 23 -169.5t63 -126.5t95 -79t120 -27q56 0 97.5 8.5t71 22t50 29.5t37 29t31 22t30.5 9t27 -5.5t16 -13.5l117 -140q-97 -116 -231 -175.5t-304 -59.5q-141 0 -250 49.5t-184 136.5t-113 206.5t-38 257.5z" />
<glyph unicode="D" horiz-adv-x="1452" d="M58 0l185 1492h536q146 0 263.5 -49.5t199.5 -136.5t126 -206t44 -258q0 -122 -27.5 -231t-79 -203t-124.5 -169t-163.5 -128.5t-197.5 -82t-225 -28.5h-537zM427 257h201q102 0 184 40.5t139.5 115t88 181.5t30.5 240q0 91 -21 165t-62.5 126.5t-102 81t-138.5 28.5 h-200z" />
<glyph unicode="E" horiz-adv-x="1096" d="M58 0l185 1492h889l-33 -257h-552l-44 -361h422l-33 -247h-420l-46 -370h556l-33 -257h-891z" />
<glyph unicode="F" horiz-adv-x="1089" d="M58 0l185 1492h889l-33 -257h-552l-48 -393h460l-34 -257h-458l-73 -585h-336z" />
<glyph unicode="G" horiz-adv-x="1382" d="M67 649q0 124 28 236t80 207.5t125.5 172t163 131t193 83.5t216.5 29q95 0 172.5 -17t139 -46.5t109.5 -68t85 -79.5l-108 -134q-27 -36 -64 -43q-9 -2 -17 -2q-29 0 -58 19q-36 25 -68 42.5t-64.5 29.5t-69 17.5t-81.5 5.5q-97 0 -178 -41.5t-139.5 -117t-90.5 -181 t-32 -232.5q0 -98 24 -176t68 -132t105.5 -82.5t135.5 -28.5q61 0 110.5 10.5t94.5 30.5l29 243h-127q-31 0 -47 16t-12 42l22 184h498l-78 -624q-57 -42 -118.5 -72t-128.5 -49.5t-141.5 -28.5t-158.5 -9q-138 0 -252.5 50.5t-195.5 139.5t-125.5 211t-44.5 264z" />
<glyph unicode="H" horiz-adv-x="1482" d="M58 0l185 1492h336l-78 -630h538l78 630h336l-184 -1492h-336l79 635h-539l-79 -635h-336z" />
<glyph unicode="I" horiz-adv-x="607" d="M58 0l183 1492h336l-183 -1492h-336z" />
<glyph unicode="J" horiz-adv-x="852" d="M-36 10l25 192q3 26 18 42.5t47 16.5q25 0 55.5 -5.5t67.5 -5.5q83 0 136.5 65t70.5 212l117 965h334l-117 -956q-15 -125 -56 -226.5t-109 -174.5t-161.5 -112t-214.5 -39q-54 0 -106 6t-107 20z" />
<glyph unicode="K" horiz-adv-x="1357" d="M58 0l183 1492h333l-75 -610h49q72 0 108 49l355 494q30 39 66 53t85 14h289l-469 -609q-48 -59 -102 -87q35 -14 61 -39t45 -65l316 -692h-297q-29 0 -48.5 4t-33.5 12.5t-23 19.5t-16 25l-232 525q-12 30 -37.5 41.5t-68.5 11.5h-77l-79 -639h-332z" />
<glyph unicode="L" horiz-adv-x="1002" d="M58 0l185 1492h334l-152 -1226h502l-33 -266h-836z" />
<glyph unicode="M" horiz-adv-x="1830" d="M58 0l185 1492h254q22 0 36.5 -2t25.5 -7t21 -15.5t21 -26.5l262 -786q11 -32 20.5 -65t17.5 -67q15 34 32.5 67.5t38.5 64.5l456 786q15 16 27.5 26.5t25 15.5t28 7t36.5 2h256l-184 -1492h-293l104 868q4 28 10.5 61.5t14.5 68.5l-448 -770q-22 -34 -54 -51t-71 -17 h-45q-39 0 -68 17.5t-41 50.5l-262 773q-1 -35 -3 -67.5t-5 -60.5l-103 -873h-295z" />
<glyph unicode="N" horiz-adv-x="1482" d="M58 0l185 1492h176q22 0 36.5 -1.5t26 -7t20.5 -16t19 -26.5l523 -922q3 36 6.5 69t7.5 61l100 843h295l-184 -1492h-174q-39 0 -63 13t-46 42l-521 922q-3 -59 -9 -107l-103 -870h-295z" />
<glyph unicode="O" horiz-adv-x="1556" d="M67 649q0 121 28 232t79.5 206.5t125.5 173t165 132.5t197.5 85t225.5 30q146 0 263.5 -51.5t199 -141.5t125 -212t43.5 -261q0 -121 -28.5 -231.5t-80 -206t-125 -173t-164.5 -132.5t-197.5 -85t-224.5 -30q-147 0 -264.5 51.5t-199 141t-125 211t-43.5 261.5zM409 656 q0 -92 21.5 -166.5t63 -128t102.5 -82.5t140 -29q102 0 183.5 42t138.5 118.5t88 184.5t31 239q0 92 -22 167t-64.5 129t-104 83t-139.5 29q-102 0 -183 -42.5t-138 -119t-87 -185t-30 -239.5z" />
<glyph unicode="P" horiz-adv-x="1225" d="M58 0l183 1492h493q133 0 228 -32.5t156 -89t89.5 -134t28.5 -166.5q0 -122 -37.5 -226t-114 -179.5t-194.5 -118.5t-279 -43h-158l-63 -503h-332zM483 754h161q72 0 120.5 21t78.5 59t43.5 91.5t13.5 116.5q0 44 -11.5 81t-36.5 63.5t-62 41.5t-89 15h-157z" />
<glyph unicode="Q" horiz-adv-x="1556" d="M67 649q0 121 28 232t79.5 206.5t125.5 173t165 132.5t197.5 85t225.5 30q146 0 263.5 -51.5t199 -141.5t125 -212t43.5 -261q0 -114 -25 -218.5t-71 -195.5t-111.5 -167.5t-146.5 -133.5l298 -408h-274q-58 0 -103.5 15.5t-78.5 56.5l-145 208q-79 -15 -163 -15 q-147 0 -264.5 51.5t-199 141t-125 211t-43.5 261.5zM409 656q0 -92 21.5 -166.5t63 -128t102.5 -82.5t140 -29q102 0 183.5 42t138.5 118.5t88 184t31 239.5q0 92 -22 167t-64.5 129t-104 83t-139.5 29q-102 0 -183 -42.5t-138 -119t-87 -185t-30 -239.5z" />
<glyph unicode="R" horiz-adv-x="1257" d="M58 0l183 1492h452q137 0 234 -29t158.5 -80.5t89.5 -121.5t28 -152t-22 -156t-64 -136t-102.5 -110t-137.5 -78q31 -17 56 -42.5t43 -61.5l217 -525h-301q-42 0 -70 17t-41 46l-161 442q-12 28 -31 40t-55 12h-75l-69 -557h-332zM487 787h122q72 0 122 22t81.5 59 t45 86.5t13.5 103.5q0 42 -12 76t-38 58.5t-65.5 37.5t-92.5 13h-119z" />
<glyph unicode="S" horiz-adv-x="1071" d="M-18 180l118 156q14 17 35.5 28.5t42.5 11.5q29 0 56 -20t60 -44t76.5 -44t106.5 -20q93 0 144 50.5t51 150.5q0 46 -23 75.5t-60.5 50t-85.5 36.5t-98.5 34.5t-98.5 43.5t-85.5 65.5t-60.5 99t-23 144.5q0 99 37.5 191t107 162.5t169 112.5t223.5 42q63 0 123 -13 t112.5 -36.5t95.5 -56t72 -70.5l-100 -137q-18 -24 -35.5 -35.5t-42.5 -11.5q-24 0 -47.5 15.5t-52.5 33.5t-67 33.5t-89 15.5q-47 0 -82.5 -13t-59 -37t-35 -55.5t-11.5 -69.5q0 -41 23 -68.5t61.5 -48.5t86.5 -38.5t98.5 -38t99 -47t87 -66.5t61.5 -96.5t23 -135.5 q0 -113 -38.5 -212t-111.5 -173t-177 -117.5t-234 -43.5q-65 0 -129.5 14t-124.5 40.5t-111.5 62t-86.5 79.5z" />
<glyph unicode="T" horiz-adv-x="1161" d="M105 1228l33 264h1096l-35 -264h-379l-151 -1228h-332l149 1228h-381z" />
<glyph unicode="U" horiz-adv-x="1429" d="M117 605l106 887h334l-108 -887q-4 -37 -4 -71q0 -38 5 -72q10 -64 38 -108t74 -68t108 -24t114 24t90.5 68.5t64 108t34.5 142.5l108 887h334l-108 -887q-17 -136 -72 -250t-142.5 -196.5t-203.5 -128.5t-254 -46t-242.5 46t-171.5 128.5t-95 196.5q-17 69 -16 146 q0 50 7 104z" />
<glyph unicode="V" horiz-adv-x="1366" d="M87 1492h268q43 0 69 -20.5t32 -52.5l155 -822q13 -49 24.5 -109t19.5 -124q23 65 47 124.5t51 108.5l348 822q6 13 17.5 26.5t27 24t34.5 16.5t40 6h270l-733 -1492h-303z" />
<glyph unicode="W" horiz-adv-x="2009" d="M101 1492h263q43 0 69 -20t31 -53l104 -804q3 -38 6.5 -80.5t6.5 -90.5q15 47 31 91t32 80l305 804q6 13 17.5 26.5t27 24t34 16.5t38.5 6h78q43 0 68 -20.5t34 -52.5l115 -804q6 -36 11 -78t9 -88q14 46 27.5 88t26.5 78l295 804q4 14 15.5 27.5t27.5 23.5t35.5 16 t39.5 6h265l-609 -1492h-303l-137 942q-4 24 -7.5 50.5t-6.5 56.5q-11 -30 -21 -56.5t-20 -50.5l-365 -942h-301z" />
<glyph unicode="X" horiz-adv-x="1331" d="M-101 0l561 797l-324 695h303q33 0 47 -8.5t23 -29.5l197 -471q10 19 24 40l262 426q15 23 31.5 33t40.5 10h350l-495 -680l358 -812h-299q-33 0 -51 16.5t-27 36.5l-220 548q-4 -7 -8 -13t-9 -13l-330 -522q-20 -30 -45.5 -41.5t-55.5 -11.5h-333z" />
<glyph unicode="Y" horiz-adv-x="1291" d="M87 1492h297q43 0 67 -20t35 -53l144 -451q31 -88 46 -166q19 39 42.5 79.5t50.5 86.5l254 451q17 27 46 50t71 23h276l-610 -920l-72 -572h-334l71 568z" />
<glyph unicode="Z" horiz-adv-x="1159" d="M-48 0l12 98q3 20 13 39t22 36l755 1062h-597l32 257h1033l-15 -100q-3 -20 -12.5 -39t-22.5 -36l-753 -1060h631l-33 -257h-1065z" />
<glyph unicode="[" horiz-adv-x="626" d="M33 -328l235 1920h430l-14 -116q-3 -30 -28.5 -51.5t-59.5 -21.5h-95l-191 -1540h100q34 0 53 -22t14 -53l-14 -116h-430z" />
<glyph unicode="\" horiz-adv-x="894" d="M154 1494h129q54 0 90.5 -27.5t50.5 -76.5l332 -1493h-129q-48 0 -89.5 28t-56.5 82z" />
<glyph unicode="]" horiz-adv-x="626" d="M-75 -328l17 116q3 31 27.5 53t58.5 22h97l190 1540h-99q-34 0 -53.5 21.5t-16.5 51.5l17 116h430l-238 -1920h-430z" />
<glyph unicode="^" d="M143 786l396 706h206l396 -706h-234q-28 0 -45.5 14.5t-30.5 35.5l-126 242q-18 33 -33 62.5t-25 59.5q-10 -30 -24 -59.5t-31 -62.5l-123 -242q-11 -20 -30 -35t-50 -15h-246z" />
<glyph unicode="_" horiz-adv-x="911" d="M-30 -307l25 190h743l-24 -190h-744z" />
<glyph unicode="`" horiz-adv-x="753" d="M201 1508h273q44 0 64 -15.5t32 -45.5l100 -251h-166q-33 0 -52 9.5t-37 33.5z" />
<glyph unicode="a" horiz-adv-x="1086" d="M22 366q0 144 52.5 273.5t147 227t225 154.5t285.5 57q76 0 154 -10t153 -37l-129 -1031h-170q-30 0 -49.5 7.5t-31.5 21t-16.5 32t-4.5 39.5v77q-65 -90 -145 -141.5t-177 -51.5q-57 0 -110 23t-94 69.5t-65.5 118.5t-24.5 171zM339 422q0 -51 8 -87t22 -58t33 -32.5 t41 -10.5q35 0 68 26.5t62 71.5t53.5 105.5t42.5 128.5l38 294h-20q-78 0 -142 -34.5t-110 -94.5t-71 -139.5t-25 -169.5z" />
<glyph unicode="b" horiz-adv-x="1123" d="M24 0l186 1533h311l-79 -638q71 86 154.5 134.5t176.5 48.5q66 0 120 -23t93.5 -72t61.5 -125.5t22 -181.5q0 -139 -42.5 -264.5t-114 -221t-165.5 -151t-196 -55.5q-79 0 -138.5 30t-102.5 79l-3 -10q-14 -43 -36.5 -63t-73.5 -20h-174zM365 262q30 -25 66.5 -35 t69.5 -10q55 0 101.5 37t80.5 97t53 136.5t19 156.5q0 101 -30 147.5t-79 46.5q-34 0 -70 -26.5t-70 -71t-63 -104t-49 -127.5z" />
<glyph unicode="c" horiz-adv-x="926" d="M31 433q0 130 42.5 247t118.5 205t180.5 139.5t229.5 51.5q106 0 182.5 -36t137.5 -114l-103 -118q-11 -11 -25.5 -20t-31.5 -9q-20 0 -34 9t-30.5 18.5t-40 18.5t-61.5 9q-47 0 -91.5 -27.5t-79.5 -78.5t-56 -126t-21 -170q0 -53 12.5 -92.5t34 -65.5t50 -39.5 t61.5 -13.5q49 0 79 14t52.5 30.5t42 30t47.5 13.5q15 0 29.5 -7.5t25.5 -18.5l82 -97q-51 -56 -98 -95t-97.5 -62.5t-107 -34t-125.5 -10.5q-93 0 -167.5 31.5t-127.5 90t-81.5 141.5t-28.5 186z" />
<glyph unicode="d" horiz-adv-x="1125" d="M29 387q0 92 19.5 179.5t54 164.5t82.5 141t106 109.5t122.5 71t133.5 25.5q67 0 119 -21.5t92 -58.5l67 535h312l-191 -1533h-170q-30 0 -49.5 7.5t-31.5 21t-16.5 32t-4.5 39.5v89q-73 -96 -161 -150.5t-187 -54.5q-66 0 -120 23t-93.5 72t-61.5 125.5t-22 182.5z M344 418q0 -101 29.5 -147t79.5 -46q33 0 68 24.5t68.5 67.5t62.5 101t49 125l32 258q-30 25 -66 34.5t-69 9.5q-55 0 -101.5 -37t-80.5 -97t-53 -136.5t-19 -156.5z" />
<glyph unicode="e" horiz-adv-x="1012" d="M30 433q0 85 19 166t54 152t86.5 131t115.5 103t140 67t162 24q85 0 151 -24.5t111 -64t69 -88.5t24 -98q0 -73 -29 -133t-100 -107t-191.5 -79.5t-302.5 -51.5q2 -109 47.5 -159t134.5 -50q42 0 73 7.5t54 18.5t41.5 23.5t35 23.5t35 18t42.5 7q15 0 29.5 -7.5 t25.5 -19.5l82 -95q-56 -55 -110 -96t-110.5 -67t-120.5 -38t-140 -12q-94 0 -173 32t-136 91t-88 142t-31 184zM362 627q98 15 160 32.5t95.5 37.5t45.5 42.5t12 48.5q0 27 -20.5 50.5t-65.5 23.5q-79 0 -138.5 -63t-88.5 -172z" />
<glyph unicode="f" horiz-adv-x="697" d="M65 -252l132 1096l-63 14q-30 8 -48 25.5t-13 51.5l16 125h134l7 60q11 91 50 165t99.5 126t140 81t171.5 29q36 0 66 -5t61 -15l-28 -160q-5 -27 -29 -35t-47 -8q-79 0 -125.5 -42t-59.5 -146l-6 -50h215l-28 -217h-202l-95 -792l-56 -178q-20 -58 -57 -91.5t-106 -33.5 h-129z" />
<glyph unicode="g" horiz-adv-x="1062" d="M-72 -87q0 77 34 132t89 91.5t126 56.5t145 27q50 6 98 6q23 0 45 -2q70 -3 124 -13q-3 25 -3 51q0 56 27 124q-39 -27 -91 -42t-129 -15q-60 0 -115.5 20t-98 61t-68 102.5t-25.5 146.5q0 79 30 154.5t90 134.5t148.5 94.5t206.5 35.5q61 0 116.5 -13.5t102.5 -41.5h305 l-14 -99q-9 -58 -59 -79l-90 -31q6 -33 6 -70q0 -66 -18 -111.5t-39.5 -86.5t-39.5 -84t-18 -102q0 -42 14 -77t30 -72t30 -78t14 -94q-1 -82 -37 -155t-103.5 -128t-165.5 -87.5t-224 -32.5q-103 0 -185.5 21.5t-139 58.5t-87.5 88t-31 109zM229 -48q0 -52 38.5 -79 t129.5 -27q47 0 87 12.5t68.5 34.5t44 52.5t15.5 68.5v12.5t-1 11.5q-98 16 -169 16h-8q-74 -1 -119 -14.5t-65.5 -36.5t-20.5 -51zM375 657q0 -68 27.5 -106t82.5 -38q38 0 66.5 19.5t46.5 50.5t28 70t11 79q0 67 -27.5 103.5t-85.5 36.5q-38 0 -66 -17.5t-46.5 -47.5 t-27.5 -69t-9 -81z" />
<glyph unicode="h" horiz-adv-x="1129" d="M24 0l186 1533h317l-73 -610q72 80 152.5 117.5t166.5 37.5q67 0 121.5 -26.5t91.5 -77.5q36 -50 52 -126q8 -41 9 -89q0 -40 -6 -84l-79 -675h-318l80 675q4 31 4 55q0 10 -1 18q-2 30 -11 48t-25.5 25.5t-40.5 7.5q-32 0 -66.5 -18.5t-67 -53.5t-60.5 -84.5t-46 -110.5 l-69 -562h-317z" />
<glyph unicode="i" horiz-adv-x="530" d="M33 0l127 1062h313l-127 -1062h-313zM160 1353q0 38 15 71.5t41.5 59t59 40.5t68.5 15q37 0 71 -14.5t60 -40t41.5 -59t15.5 -72.5q0 -38 -16 -71.5t-43 -58.5t-61 -40t-70 -15t-68.5 15t-58 40t-40.5 58.5t-15 71.5z" />
<glyph unicode="j" horiz-adv-x="528" d="M-191 -347l30 167q5 22 18.5 32t47.5 10q33 0 55 6t36 21.5t22.5 41.5t13.5 67l129 1064h311l-129 -1064q-9 -75 -37 -141t-77 -115.5t-118.5 -78.5t-160.5 -29q-45 0 -77 5t-64 14zM146 1353q0 38 15.5 71.5t41.5 59t59 40.5t69 15q37 0 70.5 -14.5t59.5 -40t42 -59 t16 -72.5q0 -38 -16.5 -71.5t-43 -58.5t-60.5 -40t-70 -15t-69 15t-58 40t-40.5 58.5t-15.5 71.5z" />
<glyph unicode="k" horiz-adv-x="1074" d="M22 0l188 1533h313l-105 -859h21q27 0 43 8.5t33 29.5l219 299q20 26 43.5 38.5t57.5 12.5h284l-297 -378q-43 -53 -96 -83q22 -17 37 -40.5t29 -52.5l213 -508h-277q-34 0 -56 12t-34 41l-148 376q-11 26 -23.5 33.5t-41.5 7.5h-33l-57 -470h-313z" />
<glyph unicode="l" horiz-adv-x="514" d="M24 0l186 1533h313l-186 -1533h-313z" />
<glyph unicode="m" horiz-adv-x="1635" d="M24 0l129 1062h163q49 0 77 -23t28 -75v-63q68 90 142.5 133.5t156.5 43.5q90 0 149.5 -58t75.5 -170q71 118 155 173t189 55q67 0 120 -26.5t88 -77.5q35 -50 49 -126q7 -39 7 -85q0 -42 -6 -88l-80 -675h-313l80 675q4 33 4 58v15q-2 30 -9.5 47t-22 24.5t-34.5 7.5 q-32 0 -61 -16.5t-55 -49t-47.5 -78t-37.5 -101.5l-69 -582h-313l80 675q4 33 4 58q-1 9 -1 15q-2 30 -9.5 47t-21.5 24.5t-34 7.5q-32 0 -61.5 -17t-55.5 -50t-47.5 -79.5t-38.5 -103.5l-69 -577h-311z" />
<glyph unicode="n" horiz-adv-x="1129" d="M25 0l127 1062h163q49 0 77 -23t28 -75v-85q77 102 168 150.5t188 48.5q66 0 120.5 -26.5t91.5 -77.5q36 -50 52 -126q8 -41 8 -89q0 -40 -6 -84l-79 -675h-318l80 675q4 33 4 58q-1 9 -1 15q-2 30 -10.5 47t-25 24.5t-39.5 7.5q-35 0 -72.5 -21.5t-72 -60.5t-63 -95 t-45.5 -124l-58 -526h-317z" />
<glyph unicode="o" horiz-adv-x="1080" d="M31 432q0 141 46.5 259.5t125.5 204.5t182.5 134t218.5 48q89 0 166 -29.5t134 -86.5t89.5 -140.5t32.5 -191.5q0 -139 -46.5 -257.5t-125.5 -205t-182.5 -135t-218.5 -48.5q-89 0 -166.5 29.5t-134.5 86.5t-89 140.5t-32 191.5zM348 434q0 -114 31 -164.5t102 -50.5 q53 0 95 32.5t71.5 88t45.5 130t16 158.5q0 116 -31.5 165.5t-102.5 49.5q-53 0 -95 -32.5t-71 -87.5t-45 -130t-16 -159z" />
<glyph unicode="p" horiz-adv-x="1123" d="M-17 -337l170 1399h163q49 0 77 -23t28 -75v-97q74 98 162.5 154.5t189.5 56.5q66 0 120 -23t93.5 -72t61.5 -125.5t22 -181.5q0 -139 -42.5 -264.5t-114 -221t-165.5 -151t-196 -55.5q-66 0 -118.5 21.5t-92.5 56.5l-49 -399h-309zM366 261q30 -24 66 -34t69 -10 q55 0 101.5 37t80.5 97t53 136.5t19 156.5q0 101 -30 147.5t-79 46.5q-33 0 -68 -25.5t-68.5 -68.5t-62.5 -101t-50 -125z" />
<glyph unicode="q" horiz-adv-x="1087" d="M23 366q0 144 52.5 273.5t147 227t225 154.5t285.5 57q76 0 154 -10t153 -37l-172 -1368h-209q-30 0 -48 10.5t-29 26.5t-14 35t-1 37l48 373q-61 -76 -136 -118.5t-162 -42.5q-57 0 -110 23t-94 69.5t-65.5 118.5t-24.5 171zM340 422q0 -51 8 -87t22 -58t33 -32.5 t41 -10.5q34 0 67 26t62 70.5t53.5 104.5t42.5 128l38 297h-19q-78 0 -142 -34.5t-110 -94.5t-71 -139.5t-25 -169.5z" />
<glyph unicode="r" horiz-adv-x="744" d="M24 0l129 1062h163q49 0 77 -23t28 -75v-121q39 69 83 118t90 76q48 27 96 31h13q42 0 84 -19l-57 -294q-53 23 -100 23h-9q-51 -2 -93.5 -35t-76.5 -98.5t-59 -168.5l-57 -476h-311z" />
<glyph unicode="s" horiz-adv-x="840" d="M-34 115l78 116q14 20 33 32t47 12q26 0 44 -12t39.5 -26.5t51.5 -26.5t78 -12q68 0 100.5 30t32.5 71q0 32 -17 52.5t-44.5 35t-62.5 26.5t-71.5 26.5t-71.5 33.5t-62.5 47.5t-44.5 70.5t-17 101q0 74 27 143.5t81 123.5t133.5 86.5t186.5 32.5q106 0 189.5 -36.5 t138.5 -90.5l-82 -112q-14 -18 -26.5 -26.5t-33.5 -8.5q-20 0 -40 9t-43 21t-52.5 21t-67.5 9q-71 0 -101 -27t-30 -70q0 -28 17 -47.5t45 -34.5t63 -28t72 -29t72.5 -36.5t63 -50t44.5 -70.5t17 -97q0 -80 -32 -151t-91.5 -124t-144 -84t-189.5 -31q-50 0 -99.5 10 t-93 27.5t-79 41.5t-58.5 52z" />
<glyph unicode="t" horiz-adv-x="770" d="M59 905l15 124l160 33l90 259q17 49 69 49h172l-39 -310h238l-27 -217h-237l-51 -417q-5 -42 -8.5 -66t-5 -37t-1.5 -17.5v-5.5q0 -30 14 -50t44 -20q16 0 26.5 4t19 8.5t15.5 8t16 3.5q14 0 21 -6.5t14 -21.5l70 -150q-63 -46 -136 -69t-147 -23q-61 0 -110.5 16.5 t-84.5 49t-55 77.5t-22 102v17.5t1.5 29.5t5 50t9.5 83l54 434h-85q-22 0 -36 15.5t-9 46.5z" />
<glyph unicode="u" horiz-adv-x="1128" d="M62 388l80 674h318l-80 -674q-4 -33 -4 -58v-14q2 -30 11 -48t25 -26t40 -8q33 0 67.5 19t67.5 53.5t61 83.5t46 110l69 562h317l-129 -1062h-161q-113 0 -113 104v68q-77 -96 -165 -142t-183 -46q-67 0 -121 26.5t-90 77.5q-36 52 -52 128q-9 43 -9 91q0 39 5 81z" />
<glyph unicode="v" horiz-adv-x="1031" d="M48 1062h262q33 0 52 -16t24 -39l70 -477q9 -60 15 -118t10 -116q18 58 40 115.5t47 118.5l187 477q11 24 33.5 39.5t50.5 15.5h252l-517 -1062h-268z" />
<glyph unicode="w" horiz-adv-x="1539" d="M52 1062h244q31 0 51 -16t25 -39l30 -477q7 -104 10 -202q18 49 38.5 99.5t42.5 102.5l178 478q9 24 32.5 39.5t51.5 15.5h137q33 0 53 -16t23 -39l61 -478q8 -52 14.5 -102t11.5 -100q14 49 30 99t34 103l150 477q8 24 31 39.5t51 15.5h233l-432 -1062h-248 q-18 0 -30 12.5t-17 40.5l-78 530q-3 23 -5.5 44.5t-4.5 45.5q-8 -24 -17 -46.5t-18 -45.5l-203 -528q-22 -53 -67 -53h-238z" />
<glyph unicode="x" horiz-adv-x="1041" d="M-97 0l414 575l-238 487h291q31 0 44.5 -8t22.5 -29l118 -273q13 25 32 51l139 216q27 43 68 43h288l-367 -485l263 -577h-291q-31 0 -48.5 16.5t-27.5 38.5l-132 325q-5 -11 -11 -21t-12 -19l-189 -285q-15 -20 -34.5 -37.5t-49.5 -17.5h-280z" />
<glyph unicode="y" horiz-adv-x="1030" d="M49 1062h268q34 0 51 -16.5t23 -38.5l92 -458q6 -30 11.5 -59.5t8.5 -59.5q13 31 26.5 61t27.5 60l197 456q12 24 35.5 39.5t48.5 15.5h256l-688 -1338q-33 -60 -99 -61h-237l242 432z" />
<glyph unicode="z" horiz-adv-x="903" d="M-32 0l17 129q2 19 15.5 49t35.5 55l463 593h-404l29 236h776l-16 -127q-3 -33 -18.5 -63t-32.5 -51l-459 -585h418l-29 -236h-795z" />
<glyph unicode="{" horiz-adv-x="605" d="M39 -23q0 66 13.5 126t29.5 116t29.5 111.5t13.5 111.5q0 46 -19 75.5t-65 29.5l22 171q38 0 61.5 16.5t37 48.5t18 81t4.5 115q0 11 -0.5 28.5t-0.5 36.5t-0.5 36.5t-0.5 29.5q0 117 25.5 206.5t79.5 151t138 93t200 31.5h47l-17 -133q-2 -15 -10 -26t-19 -17.5 t-22 -9.5t-18 -3h2q-58 0 -89 -42t-40 -116q-7 -56 -9.5 -105.5t-4 -96.5t-3 -91.5t-6.5 -90.5q-5 -39 -19.5 -75t-37.5 -67t-54 -53.5t-70 -34.5q32 -11 55.5 -30.5t39.5 -45.5t23.5 -56t7.5 -62q0 -58 -12 -114t-26 -111t-26 -111.5t-12 -116.5q0 -55 22.5 -88t71.5 -33 h-2q8 0 19 -3.5t19.5 -11t14 -18.5t3.5 -27l-17 -131h-49q-91 0 -157 22t-108.5 62.5t-62.5 97t-20 123.5z" />
<glyph unicode="|" horiz-adv-x="572" d="M163 -337v1931h246v-1931h-246z" />
<glyph unicode="}" horiz-adv-x="604" d="M-69 -328l19 131q1 15 9 26.5t19 19t22 11t19 3.5h-2q58 0 89 41.5t40 114.5q7 55 9.5 105t4 96.5t3 91t6.5 89.5q4 39 18 75.5t37 67t54.5 53.5t70.5 35q-65 23 -96 77t-31 119q0 57 12.5 112.5t26.5 111t26.5 112.5t12.5 117q0 55 -22.5 88.5t-71.5 33.5h2q-8 0 -19 3 t-19.5 9.5t-13.5 17.5t-3 26l16 133h49q90 0 155.5 -22t108 -62.5t62.5 -97t20 -125.5q0 -65 -13 -124.5t-28.5 -116t-29 -111.5t-13.5 -111q0 -46 18 -75t64 -29l-20 -171q-38 0 -61.5 -16t-37 -48.5t-18 -82t-4.5 -115.5v-130q0 -117 -25.5 -206.5t-79.5 -151 t-137.5 -93.5t-197.5 -32h-50z" />
<glyph unicode="~" d="M80 394q0 87 23 157t66 118.5t106 74.5t143 26q54 0 101.5 -12t88.5 -26.5t75 -26.5t62 -12q49 0 76 32t27 93h256q0 -87 -23 -156.5t-66 -118t-106 -75t-143 -26.5q-54 0 -102 12t-88.5 27t-75 26.5t-62.5 11.5q-49 0 -75.5 -31.5t-26.5 -93.5h-256z" />
<glyph unicode="&#xa1;" horiz-adv-x="543" d="M10 -339l68 542q11 94 33.5 186.5t52.5 189.5h209q6 -96 5 -189t-13 -187l-66 -542h-289zM125 903q0 37 14 69t38 55.5t56.5 37t71.5 13.5q38 0 71 -13.5t57.5 -37t38 -55.5t13.5 -69t-13.5 -69t-38 -55.5t-57.5 -37t-71 -13.5q-39 0 -71.5 13.5t-56.5 37t-38 55.5 t-14 69z" />
<glyph unicode="&#xa2;" d="M86 457q0 126 40.5 235.5t117.5 192.5t188 132.5t252 55.5l33 148q3 13 11 26t20 23t27 16.5t32 6.5h113l-52 -233q77 -17 137 -51.5t109 -86.5l-92 -105q-14 -17 -28 -25t-38 -8q-14 0 -28.5 5.5t-30 13.5t-34.5 16.5t-44 17.5l-139 -627q47 6 80 19.5t58.5 27t46 24 t42.5 10.5q39 0 54 -24l71 -105q-45 -44 -94 -75t-100 -52t-103 -32t-104 -15l-29 -132q-6 -29 -31 -51.5t-59 -22.5h-113l46 211q-79 15 -144 53.5t-113.5 98t-75 138t-26.5 174.5zM387 471q0 -87 28 -147.5t84 -90.5l136 615q-65 -11 -112 -42.5t-77 -79.5t-44.5 -112.5 t-14.5 -142.5z" />
<glyph unicode="&#xa3;" d="M-29 0l25 184q70 14 106 54t45 116l31 251h-149l15 120q2 13 9.5 26t20 23t28.5 17t34 7h66l27 226q12 97 56 184.5t116 153.5t171.5 105t222.5 39q90 0 157.5 -20.5t117.5 -56t84 -86.5t56 -110l-133 -79q-43 -20 -81.5 -18t-67.5 36q-18 23 -34 39.5t-34 26.5t-41 14.5 t-55 4.5q-88 0 -148 -59.5t-73 -171.5l-28 -228h434l-14 -120q-2 -13 -9.5 -26.5t-20 -24t-28.5 -16.5t-34 -6h-350l-20 -169q-8 -65 -29.5 -115.5t-60.5 -94.5q50 11 99.5 18t99.5 7h530l-16 -123q-3 -23 -15.5 -45.5t-31.5 -40.5t-44.5 -30t-54.5 -12h-979z" />
<glyph unicode="&#xa4;" d="M98 1030l160 152l154 -152q42 23 89 35t99 12q49 0 94.5 -11.5t86.5 -32.5l157 155l158 -154l-156 -153q24 -43 36.5 -91t12.5 -100q0 -50 -11.5 -96t-33.5 -87l158 -156l-160 -152l-154 151q-43 -23 -89.5 -35t-98.5 -12q-49 0 -94.5 11.5t-85.5 31.5l-158 -153 l-158 153l156 154q-24 43 -36.5 90.5t-12.5 99.5q0 50 11.5 96.5t34.5 87.5zM444 690q0 -33 12.5 -62.5t33.5 -52t49 -35.5t61 -13t61.5 13t50 35.5t34 52t12.5 62.5q0 35 -12.5 64.5t-34 52t-50 35.5t-61.5 13t-61 -13t-49 -35.5t-33.5 -52t-12.5 -64.5z" />
<glyph unicode="&#xa5;" d="M75 236l22 162h311l11 90h-311l20 164h260l-299 838h256q42 0 66.5 -20t33.5 -53l127 -449q15 -52 25 -96.5t15 -87.5q14 43 35 87.5t48 96.5l232 449q15 29 44.5 51t71.5 22h259l-507 -838h261l-21 -164h-310l-11 -90h309l-21 -162h-308l-29 -236h-306l29 236h-313z" />
<glyph unicode="&#xa6;" horiz-adv-x="570" d="M162 -337v839h246v-839h-246zM162 756v838h246v-838h-246z" />
<glyph unicode="&#xa7;" horiz-adv-x="979" d="M5 9l86 114q14 20 33 30.5t49 10.5q26 0 45 -12.5t41.5 -26.5t54 -26.5t82.5 -12.5q63 0 99 30t36 86q0 45 -33 74.5t-83 53t-108.5 47.5t-109 59.5t-83.5 88t-33 131.5q0 93 46.5 166.5t138.5 116.5q-32 36 -51 82t-19 109q0 75 27.5 142.5t82.5 119.5t136.5 82 t189.5 30q53 0 101.5 -10t90 -28t75 -43t56.5 -54l-82 -107q-14 -19 -28.5 -27.5t-34.5 -8.5q-22 0 -41.5 9.5t-43 22t-51 22t-65.5 9.5q-36 0 -62 -8.5t-43 -24t-25.5 -36t-8.5 -42.5q0 -35 33.5 -60.5t83.5 -51t108.5 -53t108.5 -65t83.5 -88.5t33.5 -124q0 -90 -43 -166 t-141 -125q31 -33 50 -75t19 -98q0 -84 -31 -155.5t-89.5 -124t-144.5 -82.5t-198 -30q-50 0 -99.5 10t-94.5 27t-82 41t-62 51zM359 731q0 -33 20 -58t53 -46t74 -40.5t84 -40.5q30 20 42 47t12 57q0 34 -19.5 59t-51.5 45.5t-73 39.5t-84 41q-30 -20 -43.5 -45.5 t-13.5 -58.5z" />
<glyph unicode="&#xa8;" horiz-adv-x="753" d="M150 1326q0 34 13 63.5t35 51.5t51.5 35t61.5 13q35 0 65.5 -13t53.5 -35t36 -51.5t13 -63.5q0 -33 -13 -61.5t-36 -49.5t-53.5 -33.5t-65.5 -12.5q-33 0 -62 12.5t-51 33.5t-35 49.5t-13 61.5zM565 1326q0 34 13 63.5t35.5 51.5t52 35t63.5 13q35 0 65 -13t52.5 -35 t35.5 -51.5t13 -63.5q0 -33 -13 -61.5t-35.5 -49.5t-52.5 -33.5t-65 -12.5q-34 0 -63.5 12.5t-52 33.5t-35.5 49.5t-13 61.5z" />
<glyph unicode="&#xa9;" horiz-adv-x="1677" d="M90 746q0 105 27 203t77 182t119.5 154t154.5 119.5t181.5 76.5t202.5 27q105 0 203 -27t182.5 -76.5t154.5 -119.5t120 -154t77 -181.5t27 -203.5q0 -104 -27 -201.5t-77 -181.5t-120 -154t-154.5 -119.5t-182.5 -76.5t-203 -27t-202 27t-182 76.5t-154.5 119.5 t-119.5 154t-77 181t-27 202zM260 746q0 -130 45.5 -242.5t125.5 -196t188 -131t233 -47.5q126 0 235 47.5t190 131t127 196t46 242.5q0 87 -21 167t-59.5 149.5t-92.5 126t-120.5 96.5t-143.5 62t-161 22q-125 0 -233 -48t-188 -132.5t-125.5 -198.5t-45.5 -244zM401 750 q0 104 37 191.5t101 151.5t150 99.5t185 35.5q118 0 203 -41t137 -103l-84 -111q-8 -8 -20 -19t-33 -11q-20 0 -35 9.5t-33.5 20.5t-45.5 20t-72 9q-103 0 -156 -68t-53 -184q0 -61 14 -108.5t38.5 -79.5t58.5 -48t75 -16q48 0 76.5 8.5t47 19t32 19.5t33.5 10q12 0 23.5 -6 t19.5 -15l104 -108q-55 -77 -144.5 -116.5t-207.5 -39.5q-103 0 -186.5 37.5t-142 102.5t-90.5 152t-32 188z" />
<glyph unicode="&#xaa;" horiz-adv-x="704" d="M110 1006q0 37 14.5 76.5t55 73.5t111 57.5t183.5 26.5l2 18q0 15 -1 31t-6 27.5t-16 19t-30 7.5q-28 0 -46 -6.5t-33 -14t-31 -13.5t-40 -6t-36.5 12t-20.5 26l-31 69q63 54 135.5 78t151.5 24q52 0 94.5 -20.5t72 -54.5t42.5 -80t8 -99l-49 -396h-102q-30 0 -43.5 8.5 t-24.5 32.5l-8 29q-24 -19 -45.5 -34t-43.5 -25t-46 -14.5t-54 -4.5q-79 0 -121 40t-42 112zM321 1031q0 -18 9.5 -26t33.5 -8t43.5 10t43.5 31l8 73q-43 -2 -70 -8.5t-42 -17.5t-20.5 -24.5t-5.5 -29.5z" />
<glyph unicode="&#xab;" horiz-adv-x="898" d="M60 538l7 37l299 410l94 -45q37 -16 39 -47t-23 -66l-135 -224q-20 -31 -42 -47q16 -16 30 -46l82 -224q15 -36 5 -67t-50 -48l-107 -45zM399 538l7 37l299 410l94 -45q37 -16 39 -47t-23 -66l-135 -224q-20 -31 -42 -47q16 -16 30 -46l82 -224q15 -36 5 -67t-50 -48 l-107 -45z" />
<glyph unicode="&#xac;" d="M119 579l26 219h928l-63 -505h-258l35 286h-668z" />
<glyph unicode="&#xae;" horiz-adv-x="1677" d="M90 746q0 105 27 203t77 182t119.5 154t154.5 119.5t182 76.5t202 27t203 -27t182.5 -76.5t154.5 -119.5t120 -154t77 -181.5t27 -203.5q0 -104 -27 -201.5t-77 -181.5t-120 -154t-154.5 -119.5t-182.5 -76.5t-203 -27t-202 27t-182 76.5t-154.5 119.5t-119.5 154 t-77 181t-27 202zM260 746q0 -130 45.5 -242.5t125.5 -196t188 -131t233 -47.5q119 0 222 42t182 117h-222q-56 0 -78 40l-94 236q-8 18 -22.5 25.5t-38.5 7.5h-33v-309h-274v922h360q102 0 176.5 -18t122 -53t70 -86.5t22.5 -116.5q0 -43 -10 -82.5t-31 -72.5t-54.5 -60 t-79.5 -44q30 -14 50 -39.5t37 -57.5l128 -264q77 83 121 192.5t44 237.5q0 87 -21 167t-59.5 149.5t-92.5 126t-120.5 96.5t-143.5 62t-161 22q-125 0 -233 -48t-188 -132.5t-125.5 -198t-45.5 -244.5zM768 785h66q49 0 77 8t42.5 22t18 36t3.5 50q0 27 -3.5 47t-16 33.5 t-36.5 21t-65 7.5h-86v-225z" />
<glyph unicode="&#xaf;" horiz-adv-x="753" d="M223 1230l23 194h584l-23 -194h-584z" />
<glyph unicode="&#xb0;" horiz-adv-x="849" d="M112 1146q0 76 28.5 142.5t78.5 115.5t118.5 77.5t146.5 28.5q79 0 147.5 -28.5t119.5 -77.5t79.5 -115.5t28.5 -142.5q0 -74 -28.5 -140t-79.5 -115t-119.5 -78.5t-147.5 -29.5t-147 29.5t-118 78.5t-78.5 115t-28.5 140zM331 1144q0 -34 11 -63t31.5 -51t49 -34.5 t61.5 -12.5q34 0 62 12.5t48.5 34.5t32 51t11.5 63q0 35 -11.5 65t-32 52t-48.5 35t-62 13t-62 -13t-48.5 -35t-31.5 -52t-11 -65z" />
<glyph unicode="&#xb1;" d="M24 82l26 220h1012l-29 -220h-1009zM103 729l27 219h381l43 348h248l-43 -348h383l-29 -219h-381l-41 -332h-248l41 332h-381z" />
<glyph unicode="&#xb2;" horiz-adv-x="684" d="M85 922l11 69q2 19 12.5 42t32.5 41l229 201q26 23 48 48.5t38.5 51t26.5 50t10 46.5q0 24 -10.5 40t-34.5 16t-39 -11.5t-31 -35.5q-10 -13 -19.5 -22.5t-22 -14.5t-28 -6t-36.5 2l-119 20q34 123 121 180t207 57q59 0 103.5 -16.5t73.5 -44t43.5 -64.5t14.5 -78 q0 -47 -15.5 -86t-41.5 -73t-59.5 -66t-69.5 -64l-124 -113q35 10 68 15.5t60 5.5h82q34 0 51 -17t12 -47l-14 -126h-580z" />
<glyph unicode="&#xb3;" horiz-adv-x="684" d="M106 1124l100 39q39 13 69 6.5t40 -30.5q9 -26 27.5 -38t41.5 -12q37 0 59.5 22.5t22.5 64.5q0 39 -28 51t-97 12l19 148q41 0 68 4t43 14t22 25.5t6 39.5q0 23 -10.5 38t-40.5 15q-28 0 -43 -10t-27 -31q-10 -15 -19 -25t-21 -15t-27 -5.5t-35 2.5l-111 20 q16 61 47.5 105.5t73 73.5t91 43.5t104.5 14.5q58 0 101.5 -16.5t72.5 -42.5t44 -59t15 -67q0 -68 -26.5 -113t-94.5 -72q46 -17 69 -49t23 -84q0 -74 -28.5 -126.5t-73 -86.5t-100.5 -50t-109 -16t-96 9t-77 32.5t-58 64t-37 104.5z" />
<glyph unicode="&#xb4;" horiz-adv-x="753" d="M371 1196l155 251q19 30 43.5 45.5t68.5 15.5h283l-277 -269q-24 -24 -44.5 -33.5t-53.5 -9.5h-175z" />
<glyph unicode="&#xb5;" horiz-adv-x="1285" d="M48 -210l156 1272h317l-76 -616q-9 -79 15 -127t81 -48q58 0 99.5 33.5t69.5 93.5l82 664h317l-89 -729q-13 -119 67 -119h85l-15 -122q-3 -19 -18.5 -37.5t-41.5 -33.5t-62 -23.5t-79 -8.5q-81 0 -140.5 46.5t-79.5 143.5q-54 -76 -114 -116t-134 -40q-80 0 -133 35 q7 -44 5.5 -91.5t-6.5 -89.5l-25 -214h-158q-67 0 -99 33t-24 94z" />
<glyph unicode="&#xb6;" horiz-adv-x="1570" d="M105 1002q0 98 39 187t109.5 156.5t168 107t216.5 39.5h969l-33 -257h-214l-179 -1456h-277l179 1456h-200l-180 -1456h-276l103 842q-97 0 -175.5 29t-133.5 80t-85.5 121t-30.5 151z" />
<glyph unicode="&#xb7;" horiz-adv-x="594" d="M62 610q0 46 18 87t49.5 71.5t73 48t89.5 17.5t90.5 -17.5t73.5 -48t49 -71.5t18 -87t-18 -86.5t-49 -70.5t-73.5 -47.5t-90.5 -17.5t-89.5 17.5t-73 47.5t-49.5 70.5t-18 86.5z" />
<glyph unicode="&#xb8;" horiz-adv-x="753" d="M157 -348l41 95q9 28 38 28q14 0 25 -3.5t27 -3.5q24 0 33 10.5t9 21.5q0 20 -25.5 30.5t-89.5 21.5l87 193h176l-36 -97q39 -11 65.5 -26t41.5 -33t22 -38t7 -41q0 -41 -21 -73.5t-58.5 -55t-89.5 -34.5t-114 -12q-39 0 -70.5 4.5t-67.5 12.5z" />
<glyph unicode="&#xb9;" horiz-adv-x="684" d="M173 1486l271 202h184l-76 -612h88l-18 -154h-440l20 154h133l35 299l12 54l-59 -43q-16 -10 -31 -12.5t-27.5 0.5t-22 9t-13.5 13z" />
<glyph unicode="&#xba;" horiz-adv-x="765" d="M118 1137q0 86 28.5 155.5t79 117.5t118 74t146.5 26q66 0 119.5 -20t91 -56.5t58 -89t20.5 -116.5q0 -87 -28 -157.5t-77.5 -119.5t-117.5 -75t-145 -26q-67 0 -120.5 20t-92 57t-59.5 90t-21 120zM355 1133q0 -111 78 -111q60 0 84.5 52.5t24.5 153.5q0 110 -72 109 q-38 0 -60.5 -14.5t-35 -41.5t-16 -64.5t-3.5 -83.5z" />
<glyph unicode="&#xbb;" horiz-adv-x="897" d="M41.5 219q-2.5 31 20.5 67l138 224q20 29 41 46q-18 17 -29 47l-84 224q-14 35 -3.5 66t50.5 47l107 45l196 -410l-4 -37l-299 -412l-94 45q-37 17 -39.5 48zM380.5 219q-2.5 31 20.5 67l138 224q20 29 41 46q-18 17 -29 47l-84 224q-14 35 -3.5 66t50.5 47l107 45 l196 -410l-4 -37l-299 -412l-94 45q-37 17 -39.5 48z" />
<glyph unicode="&#xbc;" horiz-adv-x="1467" d="M112 0l974 1390q36 48 77.5 74t97.5 26h125l-985 -1403q-18 -26 -37.5 -42.5t-39.5 -26.5t-41.5 -14t-45.5 -4h-125zM139 1289l271 202h184l-76 -612h88l-18 -154h-440l20 154h133l35 299l12 54l-59 -43q-16 -10 -31 -12.5t-27.5 0.5t-22 9t-13.5 13zM723 304l398 462 h211l-56 -449h84l-14 -123q-3 -14 -15 -26.5t-30 -12.5h-44l-20 -155h-182l18 155h-282q-28 0 -42.5 12.5t-17.5 32.5zM936 317h158l12 106q4 28 10 59.5t15 67.5z" />
<glyph unicode="&#xbd;" horiz-adv-x="1449" d="M77 0l508 725h-437l21 154h133l35 299l12 54l-59 -43q-16 -10 -31 -12.5t-27.5 0.5t-22 9t-13.5 13l-56 90l271 202h184l-76 -612h88l-17 -147l461 658q36 48 77.5 74t97.5 26h125l-985 -1403q-18 -26 -37.5 -42.5t-39.5 -26.5t-41.5 -14t-45.5 -4h-125zM722 0l10 69 q2 19 13 42t32 41l230 201q26 23 47.5 48.5t38.5 51t26.5 50t9.5 46.5q0 24 -10 40t-35 16q-24 0 -39 -11.5t-30 -35.5q-10 -13 -20 -22.5t-22 -14.5t-27.5 -6t-37.5 2l-118 20q34 123 120.5 180t206.5 57q59 0 104 -16.5t74 -44t43.5 -64.5t14.5 -78q0 -47 -15.5 -86 t-41.5 -73t-60 -66t-70 -64l-124 -113q35 10 68.5 15.5t59.5 5.5h82q34 0 51.5 -17t12.5 -47l-14 -126h-580z" />
<glyph unicode="&#xbe;" horiz-adv-x="1481" d="M102 927l100 39q39 13 69 6.5t40 -30.5q9 -26 27.5 -38t41.5 -12q37 0 59.5 22.5t22.5 64.5q0 39 -28 51t-97 12l19 148q41 0 68 4t43 14t22 25.5t6 39.5q0 23 -10.5 38t-40.5 15q-28 0 -43 -10t-27 -31q-10 -15 -19 -25t-21 -15t-27 -5.5t-35 2.5l-111 20 q16 61 47.5 105.5t73 73.5t91 43.5t104.5 14.5q58 0 101.5 -16.5t72.5 -42.5t44 -59t15 -67q0 -68 -26.5 -113t-94.5 -72q46 -17 69 -49t23 -84q0 -74 -28.5 -126.5t-73 -86.5t-100.5 -50t-109 -16t-96 9t-77 32.5t-58 64t-37 104.5zM131 0l974 1390q36 48 77.5 74t97.5 26 h125l-985 -1403q-18 -26 -37.5 -42.5t-39.5 -26.5t-41.5 -14t-45.5 -4h-125zM740 304l398 462h211l-56 -449h84l-14 -123q-3 -14 -15 -26.5t-30 -12.5h-44l-20 -155h-182l18 155h-282q-28 0 -42.5 12.5t-17.5 32.5zM953 317h158l12 106q4 28 10 59.5t15 67.5z" />
<glyph unicode="&#xbf;" horiz-adv-x="886" d="M-20 -48q0 81 22.5 138.5t57 100t76 73t80 56.5t68.5 52.5t42 61.5l45 145h209v-166q0 -48 -22 -85t-55 -68t-71 -58t-70.5 -55.5t-54.5 -62.5t-22 -78q0 -62 29 -92t71 -30q48 0 82.5 11.5t60 25t45 25.5t37.5 12q42 0 58 -35l65 -126q-40 -31 -84.5 -59t-94.5 -48.5 t-106.5 -32.5t-119.5 -12q-82 0 -147 21.5t-109.5 61.5t-68 96.5t-23.5 127.5zM352 904q0 37 14 69t38 55.5t57 37t71 13.5t71 -13.5t57.5 -37t38.5 -55.5t14 -69t-14 -69t-38.5 -55.5t-57.5 -37t-71 -13.5q-39 0 -71.5 13.5t-56.5 37t-38 55.5t-14 69z" />
<glyph unicode="&#xc0;" horiz-adv-x="1366" d="M-95 0l712 1492h342l347 -1492h-258q-43 0 -67.5 20t-33.5 53l-46 268h-507l-110 -268q-14 -28 -45.5 -50.5t-71.5 -22.5h-262zM365 1912h303q22 0 37.5 -1.5t28 -6t22 -14t20.5 -25.5l165 -277h-213q-17 0 -29.5 0.5t-22.5 3.5t-18.5 9t-19.5 17zM487 568h375l-72 426 q-8 40 -18 95t-19 118q-25 -65 -49 -119.5t-41 -95.5z" />
<glyph unicode="&#xc1;" horiz-adv-x="1366" d="M-95 0l712 1492h342l347 -1492h-258q-43 0 -67.5 20t-33.5 53l-46 268h-507l-110 -268q-14 -28 -45.5 -50.5t-71.5 -22.5h-262zM487 568h375l-72 426q-8 40 -18 95t-19 118q-25 -65 -49 -119.5t-41 -95.5zM637 1588l209 277q13 16 25.5 26t26 14.5t29.5 5.5t38 1h321 l-336 -292q-13 -11 -24 -17.5t-23 -9.5t-24.5 -4t-29.5 -1h-212z" />
<glyph unicode="&#xc2;" horiz-adv-x="1366" d="M-95 0l712 1492h342l347 -1492h-258q-43 0 -67.5 20t-33.5 53l-46 268h-507l-110 -268q-14 -28 -45.5 -50.5t-71.5 -22.5h-262zM446 1588l263 285h265l198 -285h-210q-9 0 -19.5 1t-22.5 5.5t-23.5 14t-22.5 26.5l-38 80q-4 7 -8 13.5t-7 13.5q-5 -7 -9.5 -13.5 t-9.5 -13.5l-56 -80q-31 -34 -55.5 -40.5t-42.5 -6.5h-202zM487 568h375l-72 426q-8 40 -18 95t-19 118q-25 -65 -49 -119.5t-41 -95.5z" />
<glyph unicode="&#xc3;" horiz-adv-x="1366" d="M-95 0l712 1492h342l347 -1492h-258q-43 0 -67.5 20t-33.5 53l-46 268h-507l-110 -268q-14 -28 -45.5 -50.5t-71.5 -22.5h-262zM448 1578q6 56 26.5 108.5t52.5 93.5t75 65.5t96 24.5t88.5 -15.5t62.5 -34.5t48 -34.5t46 -15.5q20 0 35.5 9t26 23t16 29.5t7.5 30.5h177 q-6 -56 -26 -108.5t-52 -93t-75 -64.5t-96 -24q-52 0 -87.5 15.5t-63 34t-49 34t-45.5 15.5q-20 0 -35.5 -9t-26 -23t-16 -30.5t-6.5 -30.5h-179zM487 568h375l-72 426q-8 40 -18 95t-19 118q-25 -65 -49 -119.5t-41 -95.5z" />
<glyph unicode="&#xc4;" horiz-adv-x="1366" d="M-95 0l712 1492h342l347 -1492h-258q-43 0 -67.5 20t-33.5 53l-46 268h-507l-110 -268q-14 -28 -45.5 -50.5t-71.5 -22.5h-262zM425 1706q0 34 13.5 63t35.5 51.5t51 35.5t62 13q35 0 65 -13t53.5 -35.5t36.5 -51.5t13 -63q0 -33 -13 -61.5t-36.5 -49.5t-53.5 -33.5 t-65 -12.5q-33 0 -62 12.5t-51 33.5t-35.5 49.5t-13.5 61.5zM487 568h375l-72 426q-8 40 -18 95t-19 118q-25 -65 -49 -119.5t-41 -95.5zM851 1706q0 34 13 63t35.5 51.5t52 35.5t63.5 13q35 0 65 -13t53 -35.5t35.5 -51.5t12.5 -63q0 -33 -12.5 -61.5t-35.5 -49.5 t-53 -33.5t-65 -12.5q-34 0 -63.5 12.5t-52 33.5t-35.5 49.5t-13 61.5z" />
<glyph unicode="&#xc5;" horiz-adv-x="1366" d="M-95 0l712 1492h342l347 -1492h-258q-43 0 -67.5 20t-33.5 53l-46 268h-507l-110 -268q-14 -28 -45.5 -50.5t-71.5 -22.5h-262zM487 568h375l-72 426q-8 40 -18 95t-19 118q-25 -65 -49 -119.5t-41 -95.5zM609 1755q5 47 27.5 85.5t54 65.5t71 42t80.5 15q43 0 80.5 -15 t64 -42t39.5 -65.5t7 -85.5q-5 -45 -26.5 -82.5t-53.5 -64t-73 -41t-84 -14.5q-41 0 -77.5 14.5t-62.5 41t-39 64t-8 82.5zM748 1755q-4 -36 11.5 -59t54.5 -23q34 0 56 23t26 59q4 39 -13.5 61.5t-50.5 22.5q-38 0 -59 -22.5t-25 -61.5z" />
<glyph unicode="&#xc6;" horiz-adv-x="1793" d="M-91 0l837 1492h1082l-33 -257h-612v-363h436l-31 -247h-405v-368h493l-32 -257h-777v341h-439l-134 -268q-17 -28 -50 -50.5t-75 -22.5h-260zM542 568h325v659q-41 -103 -88 -184z" />
<glyph unicode="&#xc7;" horiz-adv-x="1263" d="M67 634q0 128 28.5 242.5t80.5 212t125.5 175t162.5 132t191.5 83.5t213.5 29q84 0 153.5 -15.5t125 -44t99.5 -67.5t77 -86l-117 -135q-12 -14 -28.5 -25.5t-42.5 -11.5q-17 0 -31.5 8.5t-29.5 20t-33.5 26t-44 26t-61 20t-83.5 8.5q-94 0 -175.5 -40t-141.5 -114 t-93.5 -180t-33.5 -238q0 -95 23 -169.5t63 -126.5t95 -79t120 -27q56 0 97.5 8.5t71 22t50 29.5t37 29t31 22t30.5 9t27 -5.5t16 -13.5l117 -140q-82 -98 -190.5 -156t-242.5 -73l-16 -42q39 -11 65 -26t41.5 -33t22 -38t6.5 -41q0 -41 -21 -73.5t-58 -55t-89 -34.5 t-114 -12q-39 0 -71 4.5t-67 12.5l41 95q9 28 37 28q14 0 25.5 -3.5t27.5 -3.5q24 0 33 10.5t9 21.5q0 20 -26 30.5t-89 21.5l61 136q-123 14 -217 68.5t-158 140t-97 197t-33 240.5z" />
<glyph unicode="&#xc8;" horiz-adv-x="1096" d="M58 0l185 1492h889l-33 -257h-552l-44 -361h422l-33 -247h-420l-46 -370h556l-33 -257h-891zM318 1912h303q22 0 37.5 -1.5t28 -6t22 -14t20.5 -25.5l165 -277h-213q-17 0 -29.5 0.5t-22.5 3.5t-18.5 9t-19.5 17z" />
<glyph unicode="&#xc9;" horiz-adv-x="1096" d="M58 0l185 1492h889l-33 -257h-552l-44 -361h422l-33 -247h-420l-46 -370h556l-33 -257h-891zM555 1588l209 277q13 16 25.5 26t26 14.5t29.5 5.5t38 1h321l-336 -292q-13 -11 -24 -17.5t-23 -9.5t-24.5 -4t-29.5 -1h-212z" />
<glyph unicode="&#xca;" horiz-adv-x="1096" d="M58 0l185 1492h889l-33 -257h-552l-44 -361h422l-33 -247h-420l-46 -370h556l-33 -257h-891zM349 1588l262 285h266l198 -285h-211q-9 0 -19 1t-22 5.5t-24 14t-22 26.5l-39 80q-4 7 -7.5 13.5t-6.5 13.5q-5 -7 -9.5 -13.5t-9.5 -13.5l-56 -80q-31 -34 -56 -40.5 t-42 -6.5h-202z" />
<glyph unicode="&#xcb;" horiz-adv-x="1096" d="M58 0l185 1492h889l-33 -257h-552l-44 -361h422l-33 -247h-420l-46 -370h556l-33 -257h-891zM340 1706q0 34 13.5 63t35.5 51.5t51 35.5t62 13q35 0 65 -13t53.5 -35.5t36.5 -51.5t13 -63q0 -33 -13 -61.5t-36.5 -49.5t-53.5 -33.5t-65 -12.5q-33 0 -62 12.5t-51 33.5 t-35.5 49.5t-13.5 61.5zM766 1706q0 34 13 63t35.5 51.5t52 35.5t63.5 13q35 0 65 -13t53 -35.5t35.5 -51.5t12.5 -63q0 -33 -12.5 -61.5t-35.5 -49.5t-53 -33.5t-65 -12.5q-34 0 -63.5 12.5t-52 33.5t-35.5 49.5t-13 61.5z" />
<glyph unicode="&#xcc;" horiz-adv-x="607" d="M-7 1912h303q22 0 37.5 -1.5t28 -6t22 -14t20.5 -25.5l165 -277h-213q-17 0 -29.5 0.5t-22.5 3.5t-18.5 9t-19.5 17zM58 0l183 1492h336l-183 -1492h-336z" />
<glyph unicode="&#xcd;" horiz-adv-x="607" d="M58 0l183 1492h336l-183 -1492h-336zM256 1588l209 277q13 16 25.5 26t26 14.5t29.5 5.5t38 1h321l-336 -292q-13 -11 -24 -17.5t-23 -9.5t-24.5 -4t-29.5 -1h-212z" />
<glyph unicode="&#xce;" horiz-adv-x="607" d="M58 0l183 1492h336l-183 -1492h-336zM58 1588l263 285h265l198 -285h-211q-9 0 -19 1t-22 5.5t-23.5 14t-22.5 26.5l-39 80q-4 7 -7.5 13.5t-6.5 13.5q-5 -7 -9.5 -13.5t-9.5 -13.5l-56 -80q-31 -34 -55.5 -40.5t-42.5 -6.5h-202z" />
<glyph unicode="&#xcf;" horiz-adv-x="607" d="M50 1706q0 34 13.5 63t35.5 51.5t51 35.5t62 13q35 0 65 -13t53.5 -35.5t36.5 -51.5t13 -63q0 -33 -13 -61.5t-36.5 -49.5t-53.5 -33.5t-65 -12.5q-33 0 -62 12.5t-51 33.5t-35.5 49.5t-13.5 61.5zM58 0l183 1492h336l-183 -1492h-336zM476 1706q0 34 13 63t35.5 51.5 t52 35.5t63.5 13q35 0 65 -13t53 -35.5t35.5 -51.5t12.5 -63q0 -33 -12.5 -61.5t-35.5 -49.5t-53 -33.5t-65 -12.5q-34 0 -63.5 12.5t-52 33.5t-35.5 49.5t-13 61.5z" />
<glyph unicode="&#xd0;" horiz-adv-x="1468" d="M3 656l25 183h151l80 653h537q147 0 264.5 -49.5t199 -136.5t125 -206t43.5 -258q0 -122 -27.5 -231t-78.5 -203t-124.5 -169t-164 -128.5t-196.5 -82t-224 -28.5h-536l80 656h-154zM445 257h201q102 0 183.5 40.5t138.5 115t87.5 181t30.5 240.5q0 91 -21 165t-62 126.5 t-101.5 81t-138.5 28.5h-201l-47 -396h320l-23 -183h-318z" />
<glyph unicode="&#xd1;" horiz-adv-x="1482" d="M58 0l185 1492h176q22 0 36.5 -1.5t26 -7t20.5 -16t19 -26.5l523 -922q3 36 6.5 69t7.5 61l100 843h295l-184 -1492h-174q-39 0 -63 13t-46 42l-521 922q-3 -59 -9 -107l-103 -870h-295zM492 1578q6 56 26.5 108.5t52.5 93.5t75 65.5t96 24.5t88.5 -15.5t62.5 -34.5 t48 -34.5t46 -15.5q20 0 35.5 9t26 23t16 29.5t7.5 30.5h177q-6 -56 -26 -108.5t-52 -93t-75 -64.5t-96 -24q-52 0 -87.5 15.5t-63 34t-49 34t-45.5 15.5q-20 0 -35.5 -9t-26 -23t-16 -30.5t-6.5 -30.5h-179z" />
<glyph unicode="&#xd2;" horiz-adv-x="1556" d="M67 649q0 121 28 232t79.5 206.5t125.5 173t165 132.5t197.5 85t225.5 30q146 0 263.5 -51.5t199 -141.5t125 -212t43.5 -261q0 -121 -28.5 -231.5t-80 -206t-125 -173t-164.5 -132.5t-197.5 -85t-224.5 -30q-147 0 -264.5 51.5t-199 141t-125 211t-43.5 261.5zM409 656 q0 -92 21.5 -166.5t63 -128t102.5 -82.5t140 -29q102 0 183.5 42t138.5 118.5t88 184.5t31 239q0 92 -22 167t-64.5 129t-104 83t-139.5 29q-102 0 -183 -42.5t-138 -119t-87 -185t-30 -239.5zM484 1912h303q22 0 37.5 -1.5t28 -6t22 -14t20.5 -25.5l165 -277h-213 q-17 0 -29.5 0.5t-22.5 3.5t-18.5 9t-19.5 17z" />
<glyph unicode="&#xd3;" horiz-adv-x="1556" d="M67 649q0 121 28 232t79.5 206.5t125.5 173t165 132.5t197.5 85t225.5 30q146 0 263.5 -51.5t199 -141.5t125 -212t43.5 -261q0 -121 -28.5 -231.5t-80 -206t-125 -173t-164.5 -132.5t-197.5 -85t-224.5 -30q-147 0 -264.5 51.5t-199 141t-125 211t-43.5 261.5zM409 656 q0 -92 21.5 -166.5t63 -128t102.5 -82.5t140 -29q102 0 183.5 42t138.5 118.5t88 184.5t31 239q0 92 -22 167t-64.5 129t-104 83t-139.5 29q-102 0 -183 -42.5t-138 -119t-87 -185t-30 -239.5zM733 1588l209 277q13 16 25.5 26t26 14.5t29.5 5.5t38 1h321l-336 -292 q-13 -11 -24 -17.5t-23 -9.5t-24.5 -4t-29.5 -1h-212z" />
<glyph unicode="&#xd4;" horiz-adv-x="1556" d="M67 649q0 121 28 232t79.5 206.5t125.5 173t165 132.5t197.5 85t225.5 30q146 0 263.5 -51.5t199 -141.5t125 -212t43.5 -261q0 -121 -28.5 -231.5t-80 -206t-125 -173t-164.5 -132.5t-197.5 -85t-224.5 -30q-147 0 -264.5 51.5t-199 141t-125 211t-43.5 261.5zM409 656 q0 -92 21.5 -166.5t63 -128t102.5 -82.5t140 -29q102 0 183.5 42t138.5 118.5t88 184.5t31 239q0 92 -22 167t-64.5 129t-104 83t-139.5 29q-102 0 -183 -42.5t-138 -119t-87 -185t-30 -239.5zM537 1588l262 285h265l199 -285h-211q-9 0 -19.5 1t-22.5 5.5t-23.5 14 t-21.5 26.5l-39 80q-4 7 -8 13.5t-7 13.5q-5 -7 -9.5 -13.5t-9.5 -13.5l-55 -80q-31 -34 -56 -40.5t-43 -6.5h-201z" />
<glyph unicode="&#xd5;" horiz-adv-x="1556" d="M67 649q0 121 28 232t79.5 206.5t125.5 173t165 132.5t197.5 85t225.5 30q146 0 263.5 -51.5t199 -141.5t125 -212t43.5 -261q0 -121 -28.5 -231.5t-80 -206t-125 -173t-164.5 -132.5t-197.5 -85t-224.5 -30q-147 0 -264.5 51.5t-199 141t-125 211t-43.5 261.5zM409 656 q0 -92 21.5 -166.5t63 -128t102.5 -82.5t140 -29q102 0 183.5 42t138.5 118.5t88 184.5t31 239q0 92 -22 167t-64.5 129t-104 83t-139.5 29q-102 0 -183 -42.5t-138 -119t-87 -185t-30 -239.5zM538 1578q6 56 26.5 108.5t52.5 93.5t75 65.5t96 24.5t88.5 -15.5t62.5 -34.5 t48 -34.5t46 -15.5q20 0 35.5 9t26 23t16 29.5t7.5 30.5h177q-6 -56 -26 -108.5t-52 -93t-75 -64.5t-96 -24q-52 0 -87.5 15.5t-63 34t-49 34t-45.5 15.5q-20 0 -35.5 -9t-26 -23t-16 -30.5t-6.5 -30.5h-179z" />
<glyph unicode="&#xd6;" horiz-adv-x="1556" d="M67 649q0 121 28 232t79.5 206.5t125.5 173t165 132.5t197.5 85t225.5 30q146 0 263.5 -51.5t199 -141.5t125 -212t43.5 -261q0 -121 -28.5 -231.5t-80 -206t-125 -173t-164.5 -132.5t-197.5 -85t-224.5 -30q-147 0 -264.5 51.5t-199 141t-125 211t-43.5 261.5zM409 656 q0 -92 21.5 -166.5t63 -128t102.5 -82.5t140 -29q102 0 183.5 42t138.5 118.5t88 184.5t31 239q0 92 -22 167t-64.5 129t-104 83t-139.5 29q-102 0 -183 -42.5t-138 -119t-87 -185t-30 -239.5zM558 1706q0 34 13.5 63t35.5 51.5t51 35.5t62 13q35 0 65 -13t53.5 -35.5 t36.5 -51.5t13 -63q0 -33 -13 -61.5t-36.5 -49.5t-53.5 -33.5t-65 -12.5q-33 0 -62 12.5t-51 33.5t-35.5 49.5t-13.5 61.5zM984 1706q0 34 13 63t35.5 51.5t52 35.5t63.5 13q35 0 65 -13t53 -35.5t35.5 -51.5t12.5 -63q0 -33 -12.5 -61.5t-35.5 -49.5t-53 -33.5t-65 -12.5 q-34 0 -63.5 12.5t-52 33.5t-35.5 49.5t-13 61.5z" />
<glyph unicode="&#xd7;" d="M59 347l383 341l-282 323l180 155l281 -319l356 317l141 -155l-359 -320l298 -340l-180 -154l-295 335l-381 -337z" />
<glyph unicode="&#xd8;" horiz-adv-x="1556" d="M13 -116l227 288q-84 91 -128.5 213t-44.5 264q0 121 28 232t79.5 206.5t125.5 173t165 132.5t197.5 85t225.5 30q96 0 179 -22.5t153 -64.5l45 58q19 22 34 36.5t31 24t34.5 14t45.5 4.5h170l-209 -268q72 -89 110 -203t38 -245q0 -121 -28.5 -231.5t-80 -206t-125 -173 t-164.5 -132.5t-197.5 -85t-224.5 -30q-86 0 -160.5 17.5t-139.5 50.5l-64 -82q-42 -47 -93.5 -66.5t-97.5 -19.5h-131zM409 656q0 -126 40 -218l585 747q-39 28 -85.5 42.5t-101.5 14.5q-102 0 -183 -42.5t-138 -119t-87 -185t-30 -239.5zM583 286q66 -36 153 -36 q102 0 183.5 42t138.5 118.5t88 184t31 239.5q0 100 -26 177z" />
<glyph unicode="&#xd9;" horiz-adv-x="1429" d="M117 605l106 887h334l-108 -887q-9 -79 1 -142.5t38 -108t74 -68.5t108 -24t114 24t90.5 68.5t64 108t34.5 142.5l108 887h334l-108 -887q-17 -136 -72 -250t-142.5 -196.5t-203.5 -128.5t-254 -46t-242.5 46t-171.5 128.5t-94.5 196.5t-9.5 250zM421 1912h303 q22 0 37.5 -1.5t28 -6t22 -14t20.5 -25.5l165 -277h-213q-17 0 -29.5 0.5t-22.5 3.5t-18.5 9t-19.5 17z" />
<glyph unicode="&#xda;" horiz-adv-x="1429" d="M117 605l106 887h334l-108 -887q-9 -79 1 -142.5t38 -108t74 -68.5t108 -24t114 24t90.5 68.5t64 108t34.5 142.5l108 887h334l-108 -887q-17 -136 -72 -250t-142.5 -196.5t-203.5 -128.5t-254 -46t-242.5 46t-171.5 128.5t-94.5 196.5t-9.5 250zM659 1588l209 277 q13 16 25.5 26t26 14.5t29.5 5.5t38 1h321l-336 -292q-13 -11 -24 -17.5t-23 -9.5t-24.5 -4t-29.5 -1h-212z" />
<glyph unicode="&#xdb;" horiz-adv-x="1429" d="M117 605l106 887h334l-108 -887q-9 -79 1 -142.5t38 -108t74 -68.5t108 -24t114 24t90.5 68.5t64 108t34.5 142.5l108 887h334l-108 -887q-17 -136 -72 -250t-142.5 -196.5t-203.5 -128.5t-254 -46t-242.5 46t-171.5 128.5t-94.5 196.5t-9.5 250zM463 1588l262 285h265 l199 -285h-211q-9 0 -19.5 1t-22 5.5t-23.5 14t-22 26.5l-39 80q-4 7 -7.5 13.5t-6.5 13.5q-5 -7 -10 -13.5t-10 -13.5l-55 -80q-31 -34 -56 -40.5t-42 -6.5h-202z" />
<glyph unicode="&#xdc;" horiz-adv-x="1429" d="M117 605l106 887h334l-108 -887q-9 -79 1 -142.5t38 -108t74 -68.5t108 -24t114 24t90.5 68.5t64 108t34.5 142.5l108 887h334l-108 -887q-17 -136 -72 -250t-142.5 -196.5t-203.5 -128.5t-254 -46t-242.5 46t-171.5 128.5t-94.5 196.5t-9.5 250zM474 1706q0 34 13.5 63 t35.5 51.5t51 35.5t62 13q35 0 65 -13t53.5 -35.5t36.5 -51.5t13 -63q0 -33 -13 -61.5t-36.5 -49.5t-53.5 -33.5t-65 -12.5q-33 0 -62 12.5t-51 33.5t-35.5 49.5t-13.5 61.5zM900 1706q0 34 13 63t35.5 51.5t52 35.5t63.5 13q35 0 65 -13t53 -35.5t35.5 -51.5t12.5 -63 q0 -33 -12.5 -61.5t-35.5 -49.5t-53 -33.5t-65 -12.5q-34 0 -63.5 12.5t-52 33.5t-35.5 49.5t-13 61.5z" />
<glyph unicode="&#xdd;" horiz-adv-x="1291" d="M87 1492h297q43 0 67 -20t35 -53l144 -451q31 -88 46 -166q19 39 42.5 79.5t50.5 86.5l254 451q17 27 46 50t71 23h276l-610 -920l-72 -572h-334l71 568zM577 1588l209 277q13 16 25.5 26t26 14.5t29.5 5.5t38 1h321l-336 -292q-13 -11 -24 -17.5t-23 -9.5t-24.5 -4 t-29.5 -1h-212z" />
<glyph unicode="&#xde;" horiz-adv-x="1218" d="M58 0l183 1492h333l-30 -247h162q132 0 226.5 -32t156 -88t90 -132.5t28.5 -165.5q0 -123 -37 -226.5t-114 -179.5t-195 -118.5t-278 -42.5h-161l-32 -260h-332zM454 511h161q72 0 120.5 21t79 59.5t43.5 91.5t13 117q0 44 -11.5 79.5t-36 62t-62 40.5t-88.5 14h-160z " />
<glyph unicode="&#xdf;" horiz-adv-x="1297" d="M63 935l15 121h173q31 91 85 174.5t128 147.5t165.5 102.5t197.5 38.5q116 0 194 -34t125 -84.5t67 -109t20 -108.5q0 -67 -20 -113t-49.5 -79t-64.5 -56.5t-64.5 -44.5t-49.5 -43.5t-20 -52.5q0 -27 19.5 -48.5t48 -44t62 -48t62.5 -61.5t48.5 -83.5t19.5 -113.5 q0 -103 -38 -180.5t-100.5 -128.5t-142 -76.5t-162.5 -25.5q-42 0 -84 10t-80.5 27.5t-72.5 41.5t-60 52l86 112q14 19 34.5 30.5t47.5 11.5q26 0 45.5 -12t39 -27.5t42.5 -28t56 -12.5q17 0 34.5 9.5t31 26.5t22 40t8.5 50q0 37 -22 64t-55 50t-72 46.5t-71.5 54.5 t-54.5 73t-22 103q0 73 22.5 122.5t55.5 85.5t72 63.5t72.5 55.5t56 60.5t22.5 81.5q0 58 -36.5 94t-113.5 36q-59 0 -103.5 -35.5t-77 -92.5t-51.5 -129t-28 -146l-102 -851l-55 -178q-20 -58 -57.5 -91.5t-106.5 -33.5h-129l133 1096l-78 18q-34 7 -53.5 23.5t-14.5 49.5z " />
<glyph unicode="&#xe0;" horiz-adv-x="1086" d="M22 366q0 144 52.5 273.5t147 227t225 154.5t285.5 57q76 0 154 -10t153 -37l-129 -1031h-170q-30 0 -49.5 7.5t-31.5 21t-16.5 32t-4.5 39.5v77q-65 -90 -145 -141.5t-177 -51.5q-57 0 -110 23t-94 69.5t-65.5 118.5t-24.5 171zM339 422q0 -51 8 -87t22 -58t33 -32.5 t41 -10.5q35 0 68 26.5t62 71.5t53.5 105.5t42.5 128.5l38 294h-20q-78 0 -142 -34.5t-110 -94.5t-71 -139.5t-25 -169.5zM407 1508h273q44 0 64 -15.5t32 -45.5l100 -251h-166q-33 0 -52 9.5t-37 33.5z" />
<glyph unicode="&#xe1;" horiz-adv-x="1086" d="M22 366q0 144 52.5 273.5t147 227t225 154.5t285.5 57q76 0 154 -10t153 -37l-129 -1031h-170q-30 0 -49.5 7.5t-31.5 21t-16.5 32t-4.5 39.5v77q-65 -90 -145 -141.5t-177 -51.5q-57 0 -110 23t-94 69.5t-65.5 118.5t-24.5 171zM339 422q0 -51 8 -87t22 -58t33 -32.5 t41 -10.5q35 0 68 26.5t62 71.5t53.5 105.5t42.5 128.5l38 294h-20q-78 0 -142 -34.5t-110 -94.5t-71 -139.5t-25 -169.5zM599 1196l155 251q19 30 43.5 45.5t68.5 15.5h283l-277 -269q-24 -24 -44.5 -33.5t-53.5 -9.5h-175z" />
<glyph unicode="&#xe2;" horiz-adv-x="1086" d="M22 366q0 144 52.5 273.5t147 227t225 154.5t285.5 57q76 0 154 -10t153 -37l-129 -1031h-170q-30 0 -49.5 7.5t-31.5 21t-16.5 32t-4.5 39.5v77q-65 -90 -145 -141.5t-177 -51.5q-57 0 -110 23t-94 69.5t-65.5 118.5t-24.5 171zM339 422q0 -51 8 -87t22 -58t33 -32.5 t41 -10.5q35 0 68 26.5t62 71.5t53.5 105.5t42.5 128.5l38 294h-20q-78 0 -142 -34.5t-110 -94.5t-71 -139.5t-25 -169.5zM349 1196l254 296h276l186 -296h-194q-17 0 -32.5 5.5t-29.5 23.5l-61 85q-10 11 -20 28q-8 -8 -14.5 -15t-13.5 -13l-82 -85q-15 -14 -32.5 -21.5 t-34.5 -7.5h-202z" />
<glyph unicode="&#xe3;" horiz-adv-x="1086" d="M22 366q0 144 52.5 273.5t147 227t225 154.5t285.5 57q76 0 154 -10t153 -37l-129 -1031h-170q-30 0 -49.5 7.5t-31.5 21t-16.5 32t-4.5 39.5v77q-65 -90 -145 -141.5t-177 -51.5q-57 0 -110 23t-94 69.5t-65.5 118.5t-24.5 171zM339 422q0 -51 8 -87t22 -58t33 -32.5 t41 -10.5q35 0 68 26.5t62 71.5t53.5 105.5t42.5 128.5l38 294h-20q-78 0 -142 -34.5t-110 -94.5t-71 -139.5t-25 -169.5zM396 1214q7 65 30.5 116.5t57 88.5t75.5 57t87 20q35 0 64 -11.5t53.5 -26t44 -26.5t35.5 -12q23 0 38 13t20 55h177q-8 -65 -30.5 -116.5t-55.5 -88 t-75 -56t-88 -19.5q-35 0 -64 12t-53.5 26.5t-44 26t-35.5 11.5q-24 0 -37.5 -14t-18.5 -56h-180z" />
<glyph unicode="&#xe4;" horiz-adv-x="1086" d="M22 366q0 144 52.5 273.5t147 227t225 154.5t285.5 57q76 0 154 -10t153 -37l-129 -1031h-170q-30 0 -49.5 7.5t-31.5 21t-16.5 32t-4.5 39.5v77q-65 -90 -145 -141.5t-177 -51.5q-57 0 -110 23t-94 69.5t-65.5 118.5t-24.5 171zM339 422q0 -51 8 -87t22 -58t33 -32.5 t41 -10.5q35 0 68 26.5t62 71.5t53.5 105.5t42.5 128.5l38 294h-20q-78 0 -142 -34.5t-110 -94.5t-71 -139.5t-25 -169.5zM369 1326q0 34 13 63.5t35 51.5t51.5 35t61.5 13q35 0 65.5 -13t53.5 -35t36 -51.5t13 -63.5q0 -33 -13 -61.5t-36 -49.5t-53.5 -33.5t-65.5 -12.5 q-33 0 -62 12.5t-51 33.5t-35 49.5t-13 61.5zM784 1326q0 34 13 63.5t35.5 51.5t52 35t63.5 13q35 0 65 -13t52.5 -35t35.5 -51.5t13 -63.5q0 -33 -13 -61.5t-35.5 -49.5t-52.5 -33.5t-65 -12.5q-34 0 -63.5 12.5t-52 33.5t-35.5 49.5t-13 61.5z" />
<glyph unicode="&#xe5;" horiz-adv-x="1086" d="M22 366q0 144 52.5 273.5t147 227t225 154.5t285.5 57q76 0 154 -10t153 -37l-129 -1031h-170q-30 0 -49.5 7.5t-31.5 21t-16.5 32t-4.5 39.5v77q-65 -90 -145 -141.5t-177 -51.5q-57 0 -110 23t-94 69.5t-65.5 118.5t-24.5 171zM339 422q0 -51 8 -87t22 -58t33 -32.5 t41 -10.5q35 0 68 26.5t62 71.5t53.5 105.5t42.5 128.5l38 294h-20q-78 0 -142 -34.5t-110 -94.5t-71 -139.5t-25 -169.5zM531 1366q6 51 29 92.5t58 71.5t78.5 45.5t88.5 15.5q46 0 86.5 -15.5t69.5 -45.5t43.5 -71.5t8.5 -92.5q-6 -50 -29.5 -90.5t-59 -69t-79.5 -44.5 t-91 -16q-45 0 -84.5 16t-67.5 44.5t-42.5 69t-8.5 90.5zM688 1366q-4 -36 11.5 -59t54.5 -23q34 0 56 23t26 59q5 39 -13 61.5t-51 22.5q-39 0 -59 -22.5t-25 -61.5z" />
<glyph unicode="&#xe6;" horiz-adv-x="1538" d="M-10 243q0 44 11.5 89t39.5 88t74 81t114 67t161 47.5t215 21.5l3 27q10 95 -18.5 138t-89.5 43q-51 0 -84.5 -13t-61 -27.5t-54 -27.5t-60.5 -13q-31 0 -51 15.5t-31 37.5l-43 96q99 84 201.5 125.5t218.5 41.5q105 0 170.5 -36.5t98.5 -103.5q65 65 148 100.5t187 35.5 q69 0 128.5 -22.5t104 -61.5t69.5 -90.5t25 -109.5q0 -37 -9 -75.5t-33.5 -75t-66.5 -68.5t-107.5 -58t-158.5 -42.5t-217 -20.5q4 -122 52 -176.5t135 -54.5q42 0 72.5 7.5t53.5 18.5t41.5 23.5t35.5 23.5t35.5 18t41.5 7q15 0 29.5 -7.5t26.5 -19.5l82 -95 q-56 -55 -110 -96t-111 -67t-121 -38t-140 -12q-94 0 -176 44.5t-133 139.5q-36 -48 -80 -83t-92.5 -57.5t-100 -33t-102.5 -10.5q-166 0 -244.5 68.5t-78.5 190.5zM285 280q0 -94 88 -95q38 0 72 13.5t61.5 43t46 77.5t27.5 116l3 22q-93 -5 -151 -21t-91 -39.5t-44.5 -54 t-11.5 -62.5zM887 627q98 9 157.5 25t91.5 35.5t43 42t11 46.5q0 36 -20.5 62t-71.5 26q-45 0 -80.5 -17t-61.5 -47.5t-43 -74.5t-26 -98z" />
<glyph unicode="&#xe7;" horiz-adv-x="926" d="M31 433q0 130 42.5 247t118.5 205t180.5 139.5t229.5 51.5q106 0 182.5 -36t137.5 -114l-103 -118q-11 -11 -25.5 -20t-31.5 -9q-20 0 -34 9t-30.5 18.5t-40 18.5t-61.5 9q-47 0 -91.5 -27.5t-79.5 -78.5t-56 -126t-21 -170q0 -53 12.5 -92.5t34 -65.5t50 -39.5 t61.5 -13.5q49 0 79 14t52.5 30.5t42 30t47.5 13.5q15 0 29.5 -7.5t25.5 -18.5l82 -97q-44 -49 -85 -84.5t-84 -59.5t-89 -37.5t-100 -17.5l-14 -39q39 -11 65 -26t41 -33t22 -38t7 -41q0 -41 -21 -73.5t-58.5 -55t-89 -34.5t-114.5 -12q-39 0 -70.5 4.5t-67.5 12.5l41 95 q9 28 38 28q14 0 25.5 -3.5t26.5 -3.5q24 0 33 10.5t9 21.5q0 20 -25.5 30.5t-89.5 21.5l65 144q-70 16 -125.5 53.5t-93.5 93.5t-58.5 129t-20.5 161z" />
<glyph unicode="&#xe8;" horiz-adv-x="1012" d="M30 433q0 85 19 166t54 152t86.5 131t115.5 103t140 67t162 24q85 0 151 -24.5t111 -64t69 -88.5t24 -98q0 -73 -29 -133t-100 -107t-191.5 -79.5t-302.5 -51.5q2 -109 47.5 -159t134.5 -50q42 0 73 7.5t54 18.5t41.5 23.5t35 23.5t35 18t42.5 7q15 0 29.5 -7.5 t25.5 -19.5l82 -95q-56 -55 -110 -96t-110.5 -67t-120.5 -38t-140 -12q-94 0 -173 32t-136 91t-88 142t-31 184zM271 1508h273q44 0 64 -15.5t32 -45.5l100 -251h-166q-33 0 -52 9.5t-37 33.5zM362 627q98 15 160 32.5t95.5 37.5t45.5 42.5t12 48.5q0 27 -20.5 50.5 t-65.5 23.5q-79 0 -138.5 -63t-88.5 -172z" />
<glyph unicode="&#xe9;" horiz-adv-x="1012" d="M30 433q0 85 19 166t54 152t86.5 131t115.5 103t140 67t162 24q85 0 151 -24.5t111 -64t69 -88.5t24 -98q0 -73 -29 -133t-100 -107t-191.5 -79.5t-302.5 -51.5q2 -109 47.5 -159t134.5 -50q42 0 73 7.5t54 18.5t41.5 23.5t35 23.5t35 18t42.5 7q15 0 29.5 -7.5 t25.5 -19.5l82 -95q-56 -55 -110 -96t-110.5 -67t-120.5 -38t-140 -12q-94 0 -173 32t-136 91t-88 142t-31 184zM362 627q98 15 160 32.5t95.5 37.5t45.5 42.5t12 48.5q0 27 -20.5 50.5t-65.5 23.5q-79 0 -138.5 -63t-88.5 -172zM468 1196l155 251q19 30 43.5 45.5 t68.5 15.5h283l-277 -269q-24 -24 -44.5 -33.5t-53.5 -9.5h-175z" />
<glyph unicode="&#xea;" horiz-adv-x="1012" d="M30 433q0 85 19 166t54 152t86.5 131t115.5 103t140 67t162 24q85 0 151 -24.5t111 -64t69 -88.5t24 -98q0 -73 -29 -133t-100 -107t-191.5 -79.5t-302.5 -51.5q2 -109 47.5 -159t134.5 -50q42 0 73 7.5t54 18.5t41.5 23.5t35 23.5t35 18t42.5 7q15 0 29.5 -7.5 t25.5 -19.5l82 -95q-56 -55 -110 -96t-110.5 -67t-120.5 -38t-140 -12q-94 0 -173 32t-136 91t-88 142t-31 184zM247 1196l254 296h275l187 -296h-194q-17 0 -32.5 5.5t-29.5 23.5l-62 85q-10 11 -19 28l-15 -15l-13 -13l-82 -85q-15 -14 -32.5 -21.5t-34.5 -7.5h-202z M362 627q98 15 160 32.5t95.5 37.5t45.5 42.5t12 48.5q0 27 -20.5 50.5t-65.5 23.5q-79 0 -138.5 -63t-88.5 -172z" />
<glyph unicode="&#xeb;" horiz-adv-x="1012" d="M30 433q0 85 19 166t54 152t86.5 131t115.5 103t140 67t162 24q85 0 151 -24.5t111 -64t69 -88.5t24 -98q0 -73 -29 -133t-100 -107t-191.5 -79.5t-302.5 -51.5q2 -109 47.5 -159t134.5 -50q42 0 73 7.5t54 18.5t41.5 23.5t35 23.5t35 18t42.5 7q15 0 29.5 -7.5 t25.5 -19.5l82 -95q-56 -55 -110 -96t-110.5 -67t-120.5 -38t-140 -12q-94 0 -173 32t-136 91t-88 142t-31 184zM255 1326q0 34 13 63.5t35 51.5t51.5 35t61.5 13q35 0 65.5 -13t53.5 -35t36 -51.5t13 -63.5q0 -33 -13 -61.5t-36 -49.5t-53.5 -33.5t-65.5 -12.5 q-33 0 -62 12.5t-51 33.5t-35 49.5t-13 61.5zM362 627q98 15 160 32.5t95.5 37.5t45.5 42.5t12 48.5q0 27 -20.5 50.5t-65.5 23.5q-79 0 -138.5 -63t-88.5 -172zM670 1326q0 34 13 63.5t35.5 51.5t52 35t63.5 13q35 0 65 -13t52.5 -35t35.5 -51.5t13 -63.5q0 -33 -13 -61.5 t-35.5 -49.5t-52.5 -33.5t-65 -12.5q-34 0 -63.5 12.5t-52 33.5t-35.5 49.5t-13 61.5z" />
<glyph unicode="&#xec;" horiz-adv-x="530" d="M12 1508h273q44 0 64 -15.5t32 -45.5l100 -251h-166q-33 0 -52 9.5t-37 33.5zM33 0l127 1062h313l-127 -1062h-313z" />
<glyph unicode="&#xed;" horiz-adv-x="530" d="M33 0l127 1062h313l-127 -1062h-313zM174 1196l155 251q19 30 43.5 45.5t68.5 15.5h283l-277 -269q-24 -24 -44.5 -33.5t-53.5 -9.5h-175z" />
<glyph unicode="&#xee;" horiz-adv-x="530" d="M-23 1196l254 296h276l186 -296h-193q-17 0 -32.5 5.5t-30.5 23.5l-61 85q-10 11 -20 28q-8 -8 -14.5 -15t-12.5 -13l-82 -85q-15 -14 -32.5 -21.5t-35.5 -7.5h-202zM33 0l127 1062h313l-127 -1062h-313z" />
<glyph unicode="&#xef;" horiz-adv-x="530" d="M14 1326q0 34 13.5 63.5t35.5 51.5t51 35t62 13q35 0 65 -13t53.5 -35t36.5 -51.5t13 -63.5q0 -33 -13 -61.5t-36.5 -49.5t-53.5 -33.5t-65 -12.5q-33 0 -62 12.5t-51 33.5t-35.5 49.5t-13.5 61.5zM33 0l127 1062h313l-127 -1062h-313zM369 1326q0 34 12.5 63.5t35 51.5 t52.5 35t64 13q35 0 65 -13t52.5 -35t35 -51.5t12.5 -63.5q0 -33 -12.5 -61.5t-35 -49.5t-53 -33.5t-64.5 -12.5t-64 12.5t-52.5 33.5t-35 49.5t-12.5 61.5z" />
<glyph unicode="&#xf0;" horiz-adv-x="1099" d="M25 421q0 109 38 206.5t106 170.5t159.5 116t197.5 43q94 0 162 -33t115 -97q-5 90 -33.5 161t-87.5 127l-227 -132l-58 99q-13 23 -6 43t25 31l106 63q-50 23 -115 44q-51 16 -59.5 46.5t12.5 73.5l48 95q102 -17 192.5 -52.5t167.5 -91.5l196 110l51 -97q11 -20 8 -43 t-32 -38l-93 -54q71 -88 110 -203.5t39 -263.5q0 -178 -41 -319t-118 -239.5t-187.5 -150.5t-249.5 -52q-94 0 -172.5 30t-135 86.5t-87.5 137.5t-31 183zM328 434q0 -109 44 -166.5t115 -57.5q40 0 79.5 17.5t74 59.5t61.5 113t42 178q-10 33 -24.5 61t-37.5 49t-52.5 32.5 t-68.5 11.5q-54 0 -97 -23t-73.5 -63t-46.5 -94t-16 -118z" />
<glyph unicode="&#xf1;" horiz-adv-x="1129" d="M25 0l127 1062h163q49 0 77 -23t28 -75v-85q77 102 168 150.5t188 48.5q66 0 120.5 -26.5t91 -77.5t52 -126.5t2.5 -172.5l-79 -675h-318l80 675q5 43 3.5 72.5t-10.5 47t-25.5 25t-39.5 7.5q-35 0 -72.5 -21.5t-72 -60.5t-63 -95t-45.5 -124l-58 -526h-317zM307 1214 q7 65 30.5 116.5t57 88.5t75.5 57t87 20q35 0 64 -11.5t53.5 -26t44 -26.5t35.5 -12q23 0 38 13t20 55h177q-8 -65 -30.5 -116.5t-55.5 -88t-75 -56t-88 -19.5q-35 0 -64 12t-53.5 26.5t-44 26t-35.5 11.5q-24 0 -37.5 -14t-18.5 -56h-180z" />
<glyph unicode="&#xf2;" horiz-adv-x="1080" d="M31 432q0 141 46.5 259.5t125.5 204.5t182.5 134t218.5 48q89 0 166 -29.5t134 -86.5t89.5 -140.5t32.5 -191.5q0 -139 -46.5 -257.5t-125.5 -205t-182.5 -135t-218.5 -48.5q-89 0 -166.5 29.5t-134.5 86.5t-89 140.5t-32 191.5zM306 1508h273q44 0 64 -15.5t32 -45.5 l100 -251h-166q-33 0 -52 9.5t-37 33.5zM348 434q0 -114 31 -164.5t102 -50.5q53 0 95 32.5t71.5 88t45.5 130t16 158.5q0 116 -31.5 165.5t-102.5 49.5q-53 0 -95 -32.5t-71 -87.5t-45 -130t-16 -159z" />
<glyph unicode="&#xf3;" horiz-adv-x="1080" d="M31 432q0 141 46.5 259.5t125.5 204.5t182.5 134t218.5 48q89 0 166 -29.5t134 -86.5t89.5 -140.5t32.5 -191.5q0 -139 -46.5 -257.5t-125.5 -205t-182.5 -135t-218.5 -48.5q-89 0 -166.5 29.5t-134.5 86.5t-89 140.5t-32 191.5zM348 434q0 -114 31 -164.5t102 -50.5 q53 0 95 32.5t71.5 88t45.5 130t16 158.5q0 116 -31.5 165.5t-102.5 49.5q-53 0 -95 -32.5t-71 -87.5t-45 -130t-16 -159zM476 1196l155 251q19 30 43.5 45.5t68.5 15.5h283l-277 -269q-24 -24 -44.5 -33.5t-53.5 -9.5h-175z" />
<glyph unicode="&#xf4;" horiz-adv-x="1080" d="M31 432q0 141 46.5 259.5t125.5 204.5t182.5 134t218.5 48q89 0 166 -29.5t134 -86.5t89.5 -140.5t32.5 -191.5q0 -139 -46.5 -257.5t-125.5 -205t-182.5 -135t-218.5 -48.5q-89 0 -166.5 29.5t-134.5 86.5t-89 140.5t-32 191.5zM269 1196l254 296h276l186 -296h-193 q-17 0 -33 5.5t-30 23.5l-61 85q-10 11 -20 28q-8 -8 -14.5 -15t-12.5 -13l-82 -85q-15 -14 -33 -21.5t-35 -7.5h-202zM348 434q0 -114 31 -164.5t102 -50.5q53 0 95 32.5t71.5 88t45.5 130t16 158.5q0 116 -31.5 165.5t-102.5 49.5q-53 0 -95 -32.5t-71 -87.5t-45 -130 t-16 -159z" />
<glyph unicode="&#xf5;" horiz-adv-x="1080" d="M31 432q0 141 46.5 259.5t125.5 204.5t182.5 134t218.5 48q89 0 166 -29.5t134 -86.5t89.5 -140.5t32.5 -191.5q0 -139 -46.5 -257.5t-125.5 -205t-182.5 -135t-218.5 -48.5q-89 0 -166.5 29.5t-134.5 86.5t-89 140.5t-32 191.5zM306 1214q7 65 30.5 116.5t57 88.5 t75.5 57t87 20q35 0 64 -11.5t53.5 -26t44 -26.5t35.5 -12q23 0 38 13t20 55h177q-8 -65 -30.5 -116.5t-55.5 -88t-75 -56t-88 -19.5q-35 0 -64 12t-53.5 26.5t-44 26t-35.5 11.5q-24 0 -37.5 -14t-18.5 -56h-180zM348 434q0 -114 31 -164.5t102 -50.5q53 0 95 32.5t71.5 88 t45.5 130t16 158.5q0 116 -31.5 165.5t-102.5 49.5q-53 0 -95 -32.5t-71 -87.5t-45 -130t-16 -159z" />
<glyph unicode="&#xf6;" horiz-adv-x="1080" d="M31 432q0 141 46.5 259.5t125.5 204.5t182.5 134t218.5 48q89 0 166 -29.5t134 -86.5t89.5 -140.5t32.5 -191.5q0 -139 -46.5 -257.5t-125.5 -205t-182.5 -135t-218.5 -48.5q-89 0 -166.5 29.5t-134.5 86.5t-89 140.5t-32 191.5zM268 1326q0 34 13 63.5t35 51.5t51.5 35 t61.5 13q35 0 65.5 -13t53.5 -35t36 -51.5t13 -63.5q0 -33 -13 -61.5t-36 -49.5t-53.5 -33.5t-65.5 -12.5q-33 0 -62 12.5t-51 33.5t-35 49.5t-13 61.5zM348 434q0 -114 31 -164.5t102 -50.5q53 0 95 32.5t71.5 88t45.5 130t16 158.5q0 116 -31.5 165.5t-102.5 49.5 q-53 0 -95 -32.5t-71 -87.5t-45 -130t-16 -159zM683 1326q0 34 13 63.5t35.5 51.5t52 35t63.5 13q35 0 65 -13t52.5 -35t35.5 -51.5t13 -63.5q0 -33 -13 -61.5t-35.5 -49.5t-52.5 -33.5t-65 -12.5q-34 0 -63.5 12.5t-52 33.5t-35.5 49.5t-13 61.5z" />
<glyph unicode="&#xf7;" d="M80 579l29 219h1011l-28 -219h-1012zM377 303q0 40 16 75t43 61t63 41t76 15q34 0 63 -12t49.5 -33t32 -49t11.5 -60q0 -40 -16.5 -75t-44 -60t-63.5 -39t-75 -14q-35 0 -63.5 11.5t-49 31.5t-31.5 47.5t-11 59.5zM467 1032q0 40 16 75t43 61t63 41t77 15q34 0 62.5 -12 t49 -33t32 -49t11.5 -60q0 -40 -16.5 -74.5t-44 -60t-63 -39.5t-74.5 -14q-35 0 -64 11.5t-49.5 31.5t-31.5 47.5t-11 59.5z" />
<glyph unicode="&#xf8;" horiz-adv-x="1078" d="M-38 -44l146 198q-37 54 -57.5 123t-20.5 155q0 141 46.5 259.5t125.5 204.5t182.5 134t218.5 48q109 0 199 -44q15 20 28.5 34.5t28.5 24t34 13.5t46 4h156l-148 -201q37 -54 57.5 -123.5t20.5 -155.5q0 -139 -46.5 -257.5t-125.5 -205t-183 -135t-218 -48.5 q-110 0 -200 44q-37 -39 -83.5 -55.5t-91.5 -16.5h-115zM327 417l309 432q-27 13 -62 13q-53 0 -98 -29.5t-78 -85t-52 -134.5t-19 -179v-17zM418 215q28 -15 62 -15q53 0 98.5 30t78.5 85.5t52 134.5t19 178v19z" />
<glyph unicode="&#xf9;" horiz-adv-x="1128" d="M62 388l80 674h318l-80 -674q-5 -43 -3.5 -72.5t10.5 -47.5t25 -26t40 -8q33 0 67.5 19t67.5 53.5t61 83.5t46 110l69 562h317l-129 -1062h-161q-113 0 -113 104v68q-77 -96 -165 -142t-183 -46q-67 0 -121 26.5t-90.5 78t-52 127t-3.5 172.5zM300 1508h273 q44 0 64 -15.5t32 -45.5l100 -251h-166q-33 0 -52 9.5t-37 33.5z" />
<glyph unicode="&#xfa;" horiz-adv-x="1128" d="M62 388l80 674h318l-80 -674q-5 -43 -3.5 -72.5t10.5 -47.5t25 -26t40 -8q33 0 67.5 19t67.5 53.5t61 83.5t46 110l69 562h317l-129 -1062h-161q-113 0 -113 104v68q-77 -96 -165 -142t-183 -46q-67 0 -121 26.5t-90.5 78t-52 127t-3.5 172.5zM515 1196l155 251 q19 30 43.5 45.5t68.5 15.5h283l-277 -269q-24 -24 -44.5 -33.5t-53.5 -9.5h-175z" />
<glyph unicode="&#xfb;" horiz-adv-x="1128" d="M62 388l80 674h318l-80 -674q-5 -43 -3.5 -72.5t10.5 -47.5t25 -26t40 -8q33 0 67.5 19t67.5 53.5t61 83.5t46 110l69 562h317l-129 -1062h-161q-113 0 -113 104v68q-77 -96 -165 -142t-183 -46q-67 0 -121 26.5t-90.5 78t-52 127t-3.5 172.5zM285 1196l254 296h275 l186 -296h-193q-17 0 -32.5 5.5t-30.5 23.5l-61 85q-10 11 -19 28l-15 -15l-13 -13l-82 -85q-15 -14 -32.5 -21.5t-35.5 -7.5h-201z" />
<glyph unicode="&#xfc;" horiz-adv-x="1128" d="M62 388l80 674h318l-80 -674q-5 -43 -3.5 -72.5t10.5 -47.5t25 -26t40 -8q33 0 67.5 19t67.5 53.5t61 83.5t46 110l69 562h317l-129 -1062h-161q-113 0 -113 104v68q-77 -96 -165 -142t-183 -46q-67 0 -121 26.5t-90.5 78t-52 127t-3.5 172.5zM271 1326q0 34 13 63.5 t35 51.5t51.5 35t61.5 13q35 0 65.5 -13t53.5 -35t36 -51.5t13 -63.5q0 -33 -13 -61.5t-36 -49.5t-53.5 -33.5t-65.5 -12.5q-33 0 -62 12.5t-51 33.5t-35 49.5t-13 61.5zM686 1326q0 34 13 63.5t35.5 51.5t52 35t63.5 13q35 0 65 -13t52.5 -35t35.5 -51.5t13 -63.5 q0 -33 -13 -61.5t-35.5 -49.5t-52.5 -33.5t-65 -12.5q-34 0 -63.5 12.5t-52 33.5t-35.5 49.5t-13 61.5z" />
<glyph unicode="&#xfd;" horiz-adv-x="1030" d="M49 1062h268q34 0 51 -16.5t23 -38.5l92 -458q6 -30 11.5 -59.5t8.5 -59.5q13 31 26.5 61t27.5 60l197 456q12 24 35.5 39.5t48.5 15.5h256l-688 -1338q-33 -60 -99 -61h-237l242 432zM451 1196l155 251q19 30 43.5 45.5t68.5 15.5h283l-277 -269q-24 -24 -44.5 -33.5 t-53.5 -9.5h-175z" />
<glyph unicode="&#xfe;" horiz-adv-x="1123" d="M-17 -337l227 1870h313l-79 -635q71 84 153.5 132t175.5 48q66 0 120 -23t93.5 -72t61.5 -125.5t22 -181.5q0 -139 -42.5 -264.5t-114 -221t-165.5 -151t-196 -55.5q-66 0 -118.5 21.5t-92.5 56.5l-37 -299q-2 -19 -11.5 -37t-25.5 -31.5t-38 -22.5t-48 -9h-198zM366 261 q30 -24 66 -34t69 -10q55 0 101.5 37t80.5 97t53 136.5t19 156.5q0 101 -30 147.5t-79 46.5q-33 0 -68 -25.5t-68.5 -68.5t-62.5 -101t-50 -125z" />
<glyph unicode="&#xff;" horiz-adv-x="1030" d="M49 1062h268q34 0 51 -16.5t23 -38.5l92 -458q6 -30 11.5 -59.5t8.5 -59.5q13 31 26.5 61t27.5 60l197 456q12 24 35.5 39.5t48.5 15.5h256l-688 -1338q-33 -60 -99 -61h-237l242 432zM236 1326q0 34 13 63.5t35 51.5t51.5 35t61.5 13q35 0 65.5 -13t53.5 -35t36 -51.5 t13 -63.5q0 -33 -13 -61.5t-36 -49.5t-53.5 -33.5t-65.5 -12.5q-33 0 -62 12.5t-51 33.5t-35 49.5t-13 61.5zM651 1326q0 34 13 63.5t35.5 51.5t52 35t63.5 13q35 0 65 -13t52.5 -35t35.5 -51.5t13 -63.5q0 -33 -13 -61.5t-35.5 -49.5t-52.5 -33.5t-65 -12.5 q-34 0 -63.5 12.5t-52 33.5t-35.5 49.5t-13 61.5z" />
<glyph unicode="&#x152;" horiz-adv-x="2038" d="M69 639q0 183 56 342t156 276t236.5 184t298.5 67q126 0 223.5 -47.5t164.5 -130.5l20 162h850l-33 -257h-554l-44 -363h422l-31 -247h-421l-45 -368h554l-33 -257h-850l18 139q-88 -74 -195.5 -114.5t-231.5 -40.5q-131 0 -235.5 50.5t-177 138.5t-110.5 208t-38 258z M411 646q0 -89 17.5 -163.5t53.5 -128.5t89 -83.5t124 -29.5q93 0 168 44.5t127 124t80.5 190.5t28.5 244q0 90 -18 164.5t-53.5 128.5t-88 84t-121.5 30q-95 0 -171 -44.5t-128 -125t-80 -191.5t-28 -244z" />
<glyph unicode="&#x153;" horiz-adv-x="1638" d="M28 375q0 116 23 213t63.5 175t95.5 137t120.5 98.5t138.5 59.5t147 20q95 0 166 -35.5t117 -103.5q67 66 155.5 102.5t199.5 36.5q73 0 133 -20.5t102.5 -57t66 -88t23.5 -113.5q0 -72 -28 -131.5t-98.5 -106t-188.5 -79.5t-297 -52q8 -111 55 -160t130 -49 q42 0 72.5 7.5t54 18.5t41.5 23.5t35 23.5t35.5 18t42.5 7q15 0 29.5 -7.5t25.5 -19.5l82 -95q-56 -55 -110 -96t-111 -67t-121 -38t-139 -12q-91 0 -170.5 42t-132.5 131q-77 -83 -177 -128t-218 -45q-87 0 -154.5 31.5t-114 85.5t-70.5 124.5t-24 149.5zM337 391 q0 -36 6.5 -68.5t21.5 -57t40 -39.5t62 -15q59 0 102.5 29t73.5 83t47 130t23 169q8 110 -22.5 169.5t-102.5 59.5q-60 0 -107 -34t-78.5 -94t-48.5 -144.5t-17 -187.5zM978 615q101 15 165.5 35.5t102.5 42.5t52.5 46t14.5 48q0 32 -27 55.5t-82 23.5q-81 0 -142 -63.5 t-84 -187.5z" />
<glyph unicode="&#x178;" horiz-adv-x="1291" d="M87 1492h297q43 0 67 -20t35 -53l144 -451q31 -88 46 -166q19 39 42.5 79.5t50.5 86.5l254 451q17 27 46 50t71 23h276l-610 -920l-72 -572h-334l71 568zM391 1706q0 34 13.5 63t35.5 51.5t51 35.5t62 13q35 0 65 -13t53.5 -35.5t36.5 -51.5t13 -63q0 -33 -13 -61.5 t-36.5 -49.5t-53.5 -33.5t-65 -12.5q-33 0 -62 12.5t-51 33.5t-35.5 49.5t-13.5 61.5zM817 1706q0 34 13 63t35.5 51.5t52 35.5t63.5 13q35 0 65 -13t53 -35.5t35.5 -51.5t12.5 -63q0 -33 -12.5 -61.5t-35.5 -49.5t-53 -33.5t-65 -12.5q-34 0 -63.5 12.5t-52 33.5 t-35.5 49.5t-13 61.5z" />
<glyph unicode="&#x2c6;" horiz-adv-x="753" d="M154 1196l254 296h275l186 -296h-193q-17 0 -32.5 5.5t-30.5 23.5l-61 85q-10 11 -20 28q-8 -8 -14.5 -15t-12.5 -13l-82 -85q-15 -14 -32.5 -21.5t-35.5 -7.5h-201z" />
<glyph unicode="&#x2dc;" horiz-adv-x="753" d="M189 1214q7 65 30.5 116.5t57 88.5t75.5 57t87 20q35 0 64 -11.5t53.5 -26t44 -26.5t35.5 -12q23 0 38 13t20 55h177q-8 -65 -30.5 -116.5t-55.5 -88t-75 -56t-88 -19.5q-35 0 -64 12t-53.5 26.5t-44 26t-35.5 11.5q-24 0 -37.5 -14t-18.5 -56h-180z" />
<glyph unicode="&#x2000;" horiz-adv-x="981" />
<glyph unicode="&#x2001;" horiz-adv-x="1963" />
<glyph unicode="&#x2002;" horiz-adv-x="981" />
<glyph unicode="&#x2003;" horiz-adv-x="1963" />
<glyph unicode="&#x2004;" horiz-adv-x="654" />
<glyph unicode="&#x2005;" horiz-adv-x="490" />
<glyph unicode="&#x2006;" horiz-adv-x="327" />
<glyph unicode="&#x2007;" horiz-adv-x="327" />
<glyph unicode="&#x2008;" horiz-adv-x="245" />
<glyph unicode="&#x2009;" horiz-adv-x="392" />
<glyph unicode="&#x200a;" horiz-adv-x="109" />
<glyph unicode="&#x2010;" horiz-adv-x="703" d="M78 498l31 247h514l-33 -247h-512z" />
<glyph unicode="&#x2011;" horiz-adv-x="703" d="M78 498l31 247h514l-33 -247h-512z" />
<glyph unicode="&#x2012;" horiz-adv-x="703" d="M78 498l31 247h514l-33 -247h-512z" />
<glyph unicode="&#x2013;" d="M191 515l27 210h774l-26 -210h-775z" />
<glyph unicode="&#x2014;" horiz-adv-x="1505" d="M84 515l27 210h1306l-26 -210h-1307z" />
<glyph unicode="&#x2018;" horiz-adv-x="446" d="M130 1150q-5 86 23 168.5t89 158.5t152 143l87 -55q9 -5 14.5 -15t5.5 -20q0 -14 -7.5 -24.5t-22.5 -27.5q-13 -15 -35 -47.5t-36.5 -78.5t-13.5 -104t33 -125q11 -24 -4 -44.5t-45 -31.5l-193 -69q-42 86 -47 172z" />
<glyph unicode="&#x2019;" horiz-adv-x="444" d="M106 1028q0 14 7.5 24.5t22.5 26.5q13 15 35 48t36.5 79t13.5 104t-33 124q-11 24 4 45t46 32l192 69q41 -86 46.5 -172t-22.5 -168.5t-89 -159.5t-152 -142l-87 55q-9 5 -14.5 15t-5.5 20z" />
<glyph unicode="&#x201a;" horiz-adv-x="441" d="M-67 -220q0 14 7.5 24.5t22.5 26.5q13 15 35 48t36.5 79t13.5 104t-33 124q-11 24 4 45t46 32l192 69q41 -86 46.5 -172t-22.5 -168.5t-89 -159.5t-152 -142l-87 55q-9 5 -14.5 15t-5.5 20z" />
<glyph unicode="&#x201c;" horiz-adv-x="784" d="M130 1150q-5 86 23 168.5t89 158.5t152 143l87 -55q9 -5 14.5 -15t5.5 -20q0 -14 -7.5 -24.5t-22.5 -27.5q-13 -15 -35 -47.5t-36.5 -78.5t-13.5 -104t33 -125q11 -24 -4 -44.5t-45 -31.5l-193 -69q-42 86 -47 172zM467 1150q-5 86 23 168.5t89 158.5t152 143l87 -55 q9 -5 14.5 -15t5.5 -20q0 -14 -7.5 -24.5t-22.5 -27.5q-13 -15 -35 -47.5t-36.5 -78.5t-13.5 -104t33 -125q11 -24 -4 -44.5t-45 -31.5l-193 -69q-42 86 -47 172z" />
<glyph unicode="&#x201d;" horiz-adv-x="782" d="M106 1028q0 14 7.5 24.5t22.5 26.5q13 15 35 48t36.5 79t13.5 104t-33 124q-11 24 4 45t46 32l192 69q41 -86 46.5 -172t-22.5 -168.5t-89 -159.5t-152 -142l-87 55q-9 5 -14.5 15t-5.5 20zM443 1028q0 14 7.5 24.5t22.5 26.5q13 15 35 48t36.5 79t13.5 104t-33 124 q-11 24 4 45t46 32l192 69q41 -86 46.5 -172t-22.5 -168.5t-89 -159.5t-152 -142l-87 55q-9 5 -14.5 15t-5.5 20z" />
<glyph unicode="&#x201e;" horiz-adv-x="778" d="M-67 -220q0 14 7.5 24.5t22.5 26.5q13 15 35 48t36.5 79t13.5 104t-33 124q-11 24 4 45t46 32l192 69q41 -86 46.5 -172t-22.5 -168.5t-89 -159.5t-152 -142l-87 55q-9 5 -14.5 15t-5.5 20zM270 -220q0 14 7.5 24.5t22.5 26.5q13 15 35 48t36.5 79t13.5 104t-33 124 q-11 24 4 45t46 32l192 69q41 -86 46.5 -172t-22.5 -168.5t-89 -159.5t-152 -142l-87 55q-9 5 -14.5 15t-5.5 20z" />
<glyph unicode="&#x2022;" d="M84 606q0 102 40 192.5t108.5 158t160.5 106.5t197 39t197.5 -39t161.5 -106.5t109 -157.5t40 -193q0 -101 -40 -191t-109 -157t-161.5 -105.5t-197.5 -38.5q-104 0 -196.5 38.5t-161 105.5t-108.5 157t-40 191z" />
<glyph unicode="&#x2026;" horiz-adv-x="1625" d="M13 161q0 37 14 68.5t38 55t57 37.5t72 14q38 0 70.5 -14t57 -37.5t38.5 -55t14 -68.5t-14 -69.5t-38.5 -56t-57.5 -36.5t-70 -13q-39 0 -72 13t-57 36.5t-38 56t-14 69.5zM579 161q0 37 13.5 68.5t37.5 55t57 37.5t72 14q38 0 70.5 -14t57 -37.5t38.5 -55t14 -68.5 t-14 -69.5t-38.5 -56t-57 -36.5t-70.5 -13q-39 0 -72 13t-57 36.5t-37.5 56t-13.5 69.5zM1144 161q0 37 13.5 68.5t38 55t57 37.5t71.5 14q38 0 70.5 -14t57.5 -37.5t38.5 -55t13.5 -68.5t-13.5 -69.5t-38.5 -56t-57.5 -36.5t-70.5 -13q-39 0 -71.5 13t-57 36.5t-38 56 t-13.5 69.5z" />
<glyph unicode="&#x202f;" horiz-adv-x="392" />
<glyph unicode="&#x2039;" horiz-adv-x="559" d="M60 538l7 37l299 410l94 -45q37 -16 39 -47t-23 -66l-135 -224q-20 -31 -42 -47q16 -16 30 -46l82 -224q15 -36 5 -67t-50 -48l-107 -45z" />
<glyph unicode="&#x203a;" horiz-adv-x="558" d="M41.5 219q-2.5 31 20.5 67l138 224q20 29 41 46q-18 17 -29 47l-84 224q-14 35 -3.5 66t50.5 47l107 45l196 -410l-4 -37l-299 -412l-94 45q-37 17 -39.5 48z" />
<glyph unicode="&#x205f;" horiz-adv-x="490" />
<glyph unicode="&#x20ac;" d="M16 544l21 163h102q2 26 4.5 50t7.5 49h-102l21 163h118q40 124 104.5 222.5t149 168.5t185 107t211.5 37q72 0 132 -14.5t109 -42.5t87 -66.5t65 -85.5l-123 -113q-14 -13 -28.5 -23t-39.5 -10q-16 0 -27.5 7.5t-23 18.5t-25 24t-33 24t-47 18.5t-67.5 7.5 q-105 0 -187.5 -71.5t-128.5 -208.5h488l-10 -92q-5 -25 -30 -48t-64 -23h-422q-3 -24 -5.5 -49t-4.5 -50h407l-12 -91q-2 -13 -10 -26t-20 -23.5t-28 -16.5t-34 -6h-302q12 -151 72 -227t156 -76q67 0 107 17.5t67.5 40t47 40t44.5 17.5q14 0 23 -3t18 -14l119 -120 q-85 -115 -206.5 -174t-266.5 -59q-120 0 -210 41.5t-152 115.5t-96 176.5t-41 224.5h-120z" />
<glyph unicode="&#x2122;" horiz-adv-x="1446" d="M155 1323l22 167h483l-22 -167h-138l-57 -459h-206l55 459h-137zM626 864l75 626h183q13 0 21.5 -1t16 -4t13 -9.5t12.5 -16.5l53 -231q13 -39 22 -82q9 20 20 40.5t24 41.5l115 231q9 10 16.5 16.5t15.5 9.5t17 4t22 1h181l-76 -626h-185l33 269l27 107l-146 -277 q-14 -20 -33.5 -31.5t-43.5 -11.5h-29q-24 0 -40.5 11t-25.5 32l-72 270l-3 -100l-31 -269h-182z" />
<glyph unicode="&#x25fc;" horiz-adv-x="1059" d="M0 0v1060h1060v-1060h-1060z" />
</font>
</defs>
</svg>
